Tags
Language
Tags

Nobody (2021)

Posted By: Tavaz
720p (HD) / BDRip IMDb
Nobody (2021)

Nobody (2021)
BDRip | MKV | 1280x536 | H264 @ 10829 kbps | AC-3 @ 448 kbps | 1 h 31 min | 7.23 GiB
Subtitles: English
Genre: Crime, Action, Thriller, Comedy

Hutch Mansell, a suburban dad, overlooked husband, nothing neighbor — a "nobody." When two thieves break into his home one night, Hutch's unknown long-simmering rage is ignited and propels him on a brutal path that will uncover dark secrets he fought to leave behind.

15c0701a7833cf54dc61e0a735034201.mkv (7.2 GB)



General
Unique ID : 102370298100038485195936566505541405 (0x13B73ED101A039A0E97F4585468F1D)
Complete name : ./15c0701a7833cf54dc61e0a735034201.mkv
Format : Matroska
Format version : Version 4 / Version 2
File size : 7.23 GiB
Duration : 1 h 31 min
Overall bit rate : 11.3 Mb/s
Encoded date : UTC 2021-06-16 00:28:19
Writing application : mkvmerge v29.0.0 ('Like It Or Not') 64-bit
Writing library : libebml v1.3.6 + libmatroska v1.4.9

Video
ID : 1
Format : AVC
Format/Info : Advanced Video Codec
Format profile : High@L4.1
Format settings : CABAC / 12 Ref Frames
Format settings, CABAC : Yes
Format settings, RefFrames : 12 frames
Codec ID : V_MPEG4/ISO/AVC
Duration : 1 h 31 min
Bit rate : 10.8 Mb/s
Width : 1 280 pixels
Height : 536 pixels
Display aspect ratio : 2.40:1
Frame rate mode : Constant
Frame rate : 23.976 (24000/1001) FPS
Color space : YUV
Chroma subsampling : 4:2:0
Bit depth : 8 bits
Scan type : Progressive
Bits/(Pixel*Frame) : 0.658
Stream size : 6.94 GiB (96%)
Writing library : x264 core 157 r2938 2b00a84 TnP@MTeam Mod
Encoding settings : cabac=1 / ref=12 / deblock=1:-3:-3 / analyse=0x3:0x133 / me=umh / subme=10 / psy=1 / psy_rd=1.05:0.00 / mixed_ref=1 / me_range=32 / chroma_me=1 / trellis=2 / 8x8dct=1 / cqm=0 / deadzone=21,11 / fast_pskip=0 / chroma_qp_offset=-2 / threads=12 / lookahead_threads=2 / sliced_threads=0 / nr=0 / decimate=0 / interlaced=0 / bluray_compat=0 / constrained_intra=0 / bframes=8 / b_pyramid=2 / b_adapt=2 / b_bias=0 / direct=3 / weightb=1 / open_gop=0 / weightp=2 / keyint=250 / keyint_min=24 / scenecut=40 / intra_refresh=0 / rc_lookahead=250 / rc=crf / mbtree=0 / crf=16.8 / qcomp=0.60 / qpmin=0 / qpmax=69 / qpstep=4 / vbv_maxrate=62500 / vbv_bufsize=78125 / crf_max=0.0 / nal_hrd=none / filler=0 / ip_ratio=1.30 / pb_ratio=1.20 / aq=3:0.80
Language : English
Default : Yes
Forced : No
Color range : Limited
Color primaries : BT.709
Matrix coefficients : BT.709

Audio
ID : 2
Format : AC-3
Format/Info : Audio Coding 3
Format settings, Endianness : Big
Codec ID : A_AC3
Duration : 1 h 31 min
Bit rate mode : Constant
Bit rate : 448 kb/s
Channel(s) : 6 channels
Channel positions : Front: L C R, Side: L R, LFE
Sampling rate : 48.0 kHz
Frame rate : 31.250 FPS (1536 SPF)
Bit depth : 16 bits
Compression mode : Lossy
Stream size : 294 MiB (4%)
Service kind : Complete Main
Default : Yes
Forced : No

Text
ID : 3
Format : PGS
Muxing mode : zlib
Codec ID : S_HDMV/PGS
Codec ID/Info : Picture based subtitle format used on BDs/HD-DVDs
Duration : 1 h 28 min
Bit rate : 30.4 kb/s
Count of elements : 2284
Stream size : 19.2 MiB (0%)
Language : English
Default : Yes
Forced : No

Menu
00:00:00.000 : en:Chapter 01
00:09:01.916 : en:Chapter 02
00:15:02.693 : en:Chapter 03
00:19:18.199 : en:Chapter 04
00:24:56.286 : en:Chapter 05
00:35:37.469 : en:Chapter 06
00:40:01.065 : en:Chapter 07
00:43:43.204 : en:Chapter 08
00:47:29.221 : en:Chapter 09
00:50:56.136 : en:Chapter 10
00:54:46.783 : en:Chapter 11
00:57:32.074 : en:Chapter 12
01:04:16.686 : en:Chapter 13
01:06:54.844 : en:Chapter 14
01:08:59.802 : en:Chapter 15
01:13:20.646 : en:Chapter 16
01:15:26.355 : en:Chapter 17
01:21:05.569 : en:Chapter 18
01:24:06.500 : en:Chapter 19
01:26:16.963 : en:Chapter 20





Nobody (2021)


Nobody (2021)


Nobody (2021)


Nobody (2021)


Nobody (2021)