Tags
Language
Tags

North to Alaska (1960)

Posted By: RSU75
720p (HD) / BDRip IMDb
North to Alaska (1960)

North to Alaska (1960)
BDRip 720p | MKV | AVC 1280x544, ~ 2.6 Mbps | 2hr 02mn | 6.31 GB
English: AC3, 6 ch, 640 kbps; Spanish: AC3, 1 ch, 192 kbps;
French \ German \ Japanese: DTS, 6 ch, 768 kbps; Italian \ Spanish: DTS, 1 ch, 768 kbps
Subtitles: English, Spanish, French, German, Italian, Dutch, Japanese
Genre: Comedy, Romance, Western



Director: Henry Hathaway
Writers: John Lee Mahin (screenplay), Martin Rackin (screenplay), Claude Binyon (screenplay)
Stars: John Wayne, Stewart Granger, Ernie Kovacs

During the Alaska gold rush, prospector George sends partner Sam to Seattle to bring his fiancée but when it turns out that she married another man, Sam returns with a pretty substitute, the hostess of the Henhouse dance hall.

Extras:
- None




General
Unique ID : 249647715472798394899699831570357593106 (0xBBD066AD0715575D831BDFA6CE30A412)
Complete name : F:\NorthToAlaska.1960.7p.mkv
Format : Matroska
Format version : Version 4
File size : 6.31 GiB
Duration : 2 h 2 min
Overall bit rate : 7 408 kb/s
Movie name : Release RSU75 for the Bestmoviesworld.xyz
Encoded date : UTC 2022-05-25 03:48:11
Writing application : mkvmerge v8.3.0 ('Over the Horizon') 64bit
Writing library : libebml v1.3.1 + libmatroska v1.4.2

Video
ID : 1
Format : AVC
Format/Info : Advanced Video Codec
Format profile : High@L4.1
Format settings : CABAC / 4 Ref Frames
Format settings, CABAC : Yes
Format settings, Reference fra : 4 frames
Codec ID : V_MPEG4/ISO/AVC
Duration : 2 h 2 min
Bit rate : 2 600 kb/s
Width : 1 280 pixels
Height : 544 pixels
Display aspect ratio : 2.35:1
Frame rate mode : Constant
Frame rate : 23.976 (23976/1000) FPS
Color space : YUV
Chroma subsampling : 4:2:0
Bit depth : 8 bits
Scan type : Progressive
Bits/(Pixel*Frame) : 0.156
Stream size : 2.23 GiB (35%)
Writing library : x264 core 148 r2643 5c65704
Encoding settings : cabac=1 / ref=4 / deblock=1:0:0 / analyse=0x3:0x113 / me=umh / subme=8 / psy=1 / psy_rd=1.00:0.00 / mixed_ref=1 / me_range=24 / chroma_me=1 / trellis=1 / 8x8dct=1 / cqm=0 / deadzone=21,11 / fast_pskip=1 / chroma_qp_offset=-2 / threads=3 / lookahead_threads=1 / sliced_threads=0 / nr=0 / decimate=1 / interlaced=0 / bluray_compat=0 / constrained_intra=0 / bframes=3 / b_pyramid=0 / b_adapt=2 / b_bias=0 / direct=3 / weightb=1 / open_gop=0 / weightp=2 / keyint=250 / keyint_min=25 / scenecut=40 / intra_refresh=0 / rc_lookahead=40 / rc=abr / mbtree=1 / bitrate=2600 / ratetol=1.0 / qcomp=0.60 / qpmin=10 / qpmax=51 / qpstep=4 / ip_ratio=1.41 / aq=1:1.00
Language : English
Default : Yes
Forced : No

Audio #1
ID : 2
Format : AC-3
Format/Info : Audio Coding 3
Commercial name : Dolby Digital
Codec ID : A_AC3
Duration : 2 h 2 min
Bit rate mode : Constant
Bit rate : 640 kb/s
Channel(s) : 2 channels
Channel layout : L R
Sampling rate : 44.1 kHz
Frame rate : 28.711 FPS (1536 SPF)
Compression mode : Lossy
Stream size : 559 MiB (9%)
Title : Surround 4.0
Language : English
Service kind : Complete Main
Default : Yes
Forced : No

Audio #2
ID : 3
Format : AC-3
Format/Info : Audio Coding 3
Commercial name : Dolby Digital
Codec ID : A_AC3
Duration : 2 h 2 min
Bit rate mode : Constant
Bit rate : 192 kb/s
Channel(s) : 1 channel
Channel layout : C
Sampling rate : 48.0 kHz
Frame rate : 31.250 FPS (1536 SPF)
Compression mode : Lossy
Stream size : 168 MiB (3%)
Title : Mono
Language : Spanish
Service kind : Complete Main
Default : No
Forced : No

Audio #3
ID : 4
Format : DTS
Format/Info : Digital Theater Systems
Codec ID : A_DTS
Duration : 2 h 2 min
Bit rate mode : Constant
Bit rate : 768 kb/s
Channel(s) : 6 channels
Channel layout : C L R Ls Rs LFE
Sampling rate : 48.0 kHz
Frame rate : 93.750 FPS (512 SPF)
Bit depth : 24 bits
Compression mode : Lossy
Stream size : 670 MiB (10%)
Title : Surround 5.1
Language : French
Default : No
Forced : No

Audio #4
ID : 5
Format : DTS
Format/Info : Digital Theater Systems
Codec ID : A_DTS
Duration : 2 h 2 min
Bit rate mode : Constant
Bit rate : 768 kb/s
Channel(s) : 1 channel
Channel layout : C
Sampling rate : 48.0 kHz
Frame rate : 93.750 FPS (512 SPF)
Bit depth : 24 bits
Compression mode : Lossy
Stream size : 670 MiB (10%)
Title : Mono
Language : Spanish
Default : No
Forced : No

Audio #5
ID : 6
Format : DTS
Format/Info : Digital Theater Systems
Codec ID : A_DTS
Duration : 2 h 2 min
Bit rate mode : Constant
Bit rate : 768 kb/s
Channel(s) : 6 channels
Channel layout : C L R Ls Rs LFE
Sampling rate : 48.0 kHz
Frame rate : 93.750 FPS (512 SPF)
Bit depth : 24 bits
Compression mode : Lossy
Stream size : 670 MiB (10%)
Title : Surround 5.1
Language : German
Default : No
Forced : No

Audio #6
ID : 7
Format : DTS
Format/Info : Digital Theater Systems
Codec ID : A_DTS
Duration : 2 h 2 min
Bit rate mode : Constant
Bit rate : 768 kb/s
Channel(s) : 1 channel
Channel layout : C
Sampling rate : 48.0 kHz
Frame rate : 93.750 FPS (512 SPF)
Bit depth : 24 bits
Compression mode : Lossy
Stream size : 670 MiB (10%)
Title : Mono
Language : Italian
Default : No
Forced : No

Audio #7
ID : 8
Format : DTS
Format/Info : Digital Theater Systems
Codec ID : A_DTS
Duration : 2 h 2 min
Bit rate mode : Constant
Bit rate : 768 kb/s
Channel(s) : 6 channels
Channel layout : C L R Ls Rs LFE
Sampling rate : 48.0 kHz
Frame rate : 93.750 FPS (512 SPF)
Bit depth : 24 bits
Compression mode : Lossy
Stream size : 670 MiB (10%)
Title : Surround 5.1
Language : Japanese
Default : No
Forced : No

Text #1
ID : 9
Format : PGS
Muxing mode : zlib
Codec ID : S_HDMV/PGS
Codec ID/Info : Picture based subtitle format used on BDs/HD-DVDs
Duration : 2 h 1 min
Bit rate : 12.8 kb/s
Count of elements : 3210
Stream size : 11.1 MiB (0%)
Language : English
Default : No
Forced : No

Text #2
ID : 10
Format : PGS
Muxing mode : zlib
Codec ID : S_HDMV/PGS
Codec ID/Info : Picture based subtitle format used on BDs/HD-DVDs
Duration : 2 h 1 min
Bit rate : 11.1 kb/s
Count of elements : 2776
Stream size : 9.62 MiB (0%)
Language : Spanish
Default : No
Forced : No

Text #3
ID : 11
Format : PGS
Muxing mode : zlib
Codec ID : S_HDMV/PGS
Codec ID/Info : Picture based subtitle format used on BDs/HD-DVDs
Duration : 1 h 24 min
Bit rate : 41 b/s
Count of elements : 6
Stream size : 25.8 KiB (0%)
Language : Spanish
Default : No
Forced : No

Text #4
ID : 12
Format : PGS
Muxing mode : zlib
Codec ID : S_HDMV/PGS
Codec ID/Info : Picture based subtitle format used on BDs/HD-DVDs
Duration : 1 h 59 min
Bit rate : 9 851 b/s
Count of elements : 2740
Stream size : 8.45 MiB (0%)
Language : French
Default : No
Forced : No

Text #5
ID : 13
Format : PGS
Muxing mode : zlib
Codec ID : S_HDMV/PGS
Codec ID/Info : Picture based subtitle format used on BDs/HD-DVDs
Duration : 1 h 59 min
Bit rate : 289 b/s
Count of elements : 88
Stream size : 254 KiB (0%)
Language : French
Default : No
Forced : No

Text #6
ID : 14
Format : PGS
Muxing mode : zlib
Codec ID : S_HDMV/PGS
Codec ID/Info : Picture based subtitle format used on BDs/HD-DVDs
Duration : 1 h 59 min
Bit rate : 10.7 kb/s
Count of elements : 2738
Stream size : 9.20 MiB (0%)
Language : Spanish
Default : No
Forced : No

Text #7
ID : 15
Format : PGS
Muxing mode : zlib
Codec ID : S_HDMV/PGS
Codec ID/Info : Picture based subtitle format used on BDs/HD-DVDs
Duration : 1 h 59 min
Bit rate : 135 b/s
Count of elements : 38
Stream size : 119 KiB (0%)
Language : Spanish
Default : No
Forced : No

Text #8
ID : 16
Format : PGS
Muxing mode : zlib
Codec ID : S_HDMV/PGS
Codec ID/Info : Picture based subtitle format used on BDs/HD-DVDs
Duration : 1 h 59 min
Bit rate : 9 505 b/s
Count of elements : 2384
Stream size : 8.15 MiB (0%)
Language : Dutch
Default : No
Forced : No

Text #9
ID : 17
Format : PGS
Muxing mode : zlib
Codec ID : S_HDMV/PGS
Codec ID/Info : Picture based subtitle format used on BDs/HD-DVDs
Duration : 1 h 59 min
Bit rate : 11.9 kb/s
Count of elements : 2970
Stream size : 10.2 MiB (0%)
Language : German
Default : No
Forced : No

Text #10
ID : 18
Format : PGS
Muxing mode : zlib
Codec ID : S_HDMV/PGS
Codec ID/Info : Picture based subtitle format used on BDs/HD-DVDs
Duration : 1 h 35 min
Bit rate : 1 157 b/s
Count of elements : 232
Stream size : 807 KiB (0%)
Language : German
Default : No
Forced : No

Text #11
ID : 19
Format : PGS
Muxing mode : zlib
Codec ID : S_HDMV/PGS
Codec ID/Info : Picture based subtitle format used on BDs/HD-DVDs
Duration : 1 h 59 min
Bit rate : 10.8 kb/s
Count of elements : 2782
Stream size : 9.26 MiB (0%)
Language : Italian
Default : No
Forced : No

Text #12
ID : 20
Format : PGS
Muxing mode : zlib
Codec ID : S_HDMV/PGS
Codec ID/Info : Picture based subtitle format used on BDs/HD-DVDs
Duration : 1 h 59 min
Bit rate : 58 b/s
Count of elements : 14
Stream size : 51.2 KiB (0%)
Language : Italian
Default : No
Forced : No

Text #13
ID : 21
Format : PGS
Muxing mode : zlib
Codec ID : S_HDMV/PGS
Codec ID/Info : Picture based subtitle format used on BDs/HD-DVDs
Duration : 2 h 1 min
Bit rate : 11.4 kb/s
Count of elements : 3334
Stream size : 9.89 MiB (0%)
Language : Japanese
Default : No
Forced : No

Text #14
ID : 22
Format : PGS
Muxing mode : zlib
Codec ID : S_HDMV/PGS
Codec ID/Info : Picture based subtitle format used on BDs/HD-DVDs
Duration : 2 h 1 min
Bit rate : 12.8 kb/s
Count of elements : 3210
Stream size : 11.1 MiB (0%)
Language : English
Default : No
Forced : No

Text #15
ID : 23
Format : PGS
Muxing mode : zlib
Codec ID : S_HDMV/PGS
Codec ID/Info : Picture based subtitle format used on BDs/HD-DVDs
Duration : 1 h 49 min
Bit rate : 5 619 b/s
Count of elements : 1470
Stream size : 4.39 MiB (0%)
Language : Japanese
Default : No
Forced : No

Text #16
ID : 24
Format : PGS
Muxing mode : zlib
Codec ID : S_HDMV/PGS
Codec ID/Info : Picture based subtitle format used on BDs/HD-DVDs
Duration : 1 h 49 min
Bit rate : 5 619 b/s
Count of elements : 1470
Stream size : 4.39 MiB (0%)
Language : Japanese
Default : No
Forced : No

Menu
00:00:00.000 : en:Chapter 01
00:01:49.109 : en:Chapter 02
00:03:46.976 : en:Chapter 03
00:07:54.807 : en:Chapter 04
00:11:42.993 : en:Chapter 05
00:14:41.213 : en:Chapter 06
00:15:47.571 : en:Chapter 07
00:18:40.369 : en:Chapter 08
00:26:04.813 : en:Chapter 09
00:30:14.020 : en:Chapter 10
00:32:38.164 : en:Chapter 11
00:34:59.263 : en:Chapter 12
00:38:00.695 : en:Chapter 13
00:41:46.754 : en:Chapter 14
00:45:03.951 : en:Chapter 15
00:47:48.699 : en:Chapter 16
00:52:28.770 : en:Chapter 17
00:55:50.388 : en:Chapter 18
01:00:47.727 : en:Chapter 19
01:05:15.745 : en:Chapter 20
01:07:38.596 : en:Chapter 21
01:13:29.363 : en:Chapter 22
01:17:08.081 : en:Chapter 23
01:19:15.959 : en:Chapter 24
01:22:24.731 : en:Chapter 25
01:27:41.631 : en:Chapter 26
01:30:08.820 : en:Chapter 27
01:33:18.092 : en:Chapter 28
01:39:44.937 : en:Chapter 29
01:42:34.648 : en:Chapter 30
01:44:27.427 : en:Chapter 31
01:46:30.258 : en:Chapter 32
01:49:42.242 : en:Chapter 33
01:54:13.847 : en:Chapter 34
01:55:37.013 : en:Chapter 35
01:59:54.353 : en:Chapter 36




Screenshots (click to enlarge to original size):

North to Alaska (1960)






More in My Blog



If you like this release please visit my blog
In it you will find BDRip releases in different languages