Tags
Language
Tags

History Channel - Nostradamus 21st Century Prophecies Revealed (2015)

Posted By: notbanned
History Channel - Nostradamus 21st Century Prophecies Revealed (2015)

History Channel - Nostradamus 21st Century Prophecies Revealed (2015)
HDTV | 1280x720 | .MKV/AVC @ 2392 Kbps | 1h 23mn | Audio: English AC3 384 kbps, 6 channels | Subs: None | 1.65 GiB
Genre: Documentary

How did a prophet living in 16th century France predict so many modern day disasters? From the tragic events of 9/11, to tsunamis, to the Ebola outbreak – how could one man see so far into the future so accurately? This documentary takes a look at Nostradamus in a whole new light. Through new, innovative analysis we finally have the chance to crack his cryptic code. If Nostradamus did indeed possess a special gift, is it something we can all tap into? We are left with the obvious question, if so many of his predictions have come true, what else can Nostradamus tell us about the future?


General
Unique ID : 250484463102367959050591919045665143259 (0xBC718D84E860FCBB9A0B32B00E90B9DB)
Complete name : Nostradamus21st.Century.Prophecies.Revealed.mkv
Format : Matroska
Format version : Version 2
File size : 1.65 GiB
Duration : 1h 23mn
Overall bit rate : 2 832 Kbps

Video
ID : 1
Format : AVC
Format/Info : Advanced Video Codec
Format profile : High@L4.1
Format settings, CABAC : Yes
Format settings, ReFrames : 5 frames
Codec ID : V_MPEG4/ISO/AVC
Duration : 1h 23mn
Bit rate : 2 392 Kbps
Width : 1 280 pixels
Height : 720 pixels
Display aspect ratio : 16:9
Frame rate mode : Constant
Frame rate : 23.976 fps
Color space : YUV
Chroma subsampling : 4:2:0
Bit depth : 8 bits
Scan type : Progressive
Bits/(Pixel*Frame) : 0.108
Stream size : 1.40 GiB (84%)
Writing library : x264 core 148 r2638 7599210
Encoding settings : cabac=1 / ref=5 / deblock=1:0:0 / analyse=0x3:0x113 / me=umh / subme=8 / psy=1 / psy_rd=1.00:0.00 / mixed_ref=1 / me_range=16 / chroma_me=1 / trellis=1 / 8x8dct=1 / cqm=0 / deadzone=21,11 / fast_pskip=1 / chroma_qp_offset=-2 / threads=12 / lookahead_threads=2 / sliced_threads=0 / nr=0 / decimate=1 / interlaced=0 / bluray_compat=0 / constrained_intra=0 / bframes=3 / b_pyramid=2 / b_adapt=2 / b_bias=0 / direct=3 / weightb=1 / open_gop=0 / weightp=2 / keyint=250 / keyint_min=23 / scenecut=40 / intra_refresh=0 / rc_lookahead=50 / rc=crf / mbtree=1 / crf=20.0 / qcomp=0.60 / qpmin=0 / qpmax=69 / qpstep=4 / ip_ratio=1.40 / aq=1:1.00
Default : Yes
Forced : No

Audio
ID : 2
Format : AC-3
Format/Info : Audio Coding 3
Mode extension : CM (complete main)
Format settings, Endianness : Big
Codec ID : A_AC3
Duration : 1h 23mn
Bit rate mode : Constant
Bit rate : 384 Kbps
Channel(s) : 6 channels
Channel positions : Front: L C R, Side: L R, LFE
Sampling rate : 48.0 KHz
Compression mode : Lossy
Stream size : 230 MiB (14%)
Default : Yes
Forced : No


Screenshots:

History Channel - Nostradamus 21st Century Prophecies Revealed (2015)

History Channel - Nostradamus 21st Century Prophecies Revealed (2015)

History Channel - Nostradamus 21st Century Prophecies Revealed (2015)

History Channel - Nostradamus 21st Century Prophecies Revealed (2015)