Tags
Language
Tags
May 2024
Su Mo Tu We Th Fr Sa
28 29 30 1 2 3 4
5 6 7 8 9 10 11
12 13 14 15 16 17 18
19 20 21 22 23 24 25
26 27 28 29 30 31 1

Nous finirons ensemble / Little White Lies 2 (2019)

Posted By: JohnSmith
1080p (FullHD) / BDRip IMDb
Nous finirons ensemble / Little White Lies 2 (2019)

Nous finirons ensemble / Little White Lies 2 (2019)
BDRip 720p | MKV / AVC@4300 kb/s | 1280x536 | 2h 14mn | Français (VFi): DTS, 1509 kb/s (6 ch) | 5.46 GB
BDRip 1080p | MKV / AVC@8960 kb/s | 1920x808 | 2h 14mn | Français (VFi): DTS, 1509 kb/s (6 ch) | 9.83 GB
Genre: Comedy | Drama

Préoccupé, Max est parti dans sa maison au bord de la mer pour se ressourcer. Sa bande de potes, qu’il n’a pas vue depuis plus de 3 ans débarque par surprise pour lui fêter son anniversaire ! La surprise est entière mais l’accueil l’est beaucoup moins…
Max s’enfonce alors dans une comédie du bonheur qui sonne faux, et qui mettra le groupe dans des situations pour le moins inattendues.
Les enfants ont grandi, d’autres sont nés, les parents n’ont plus les mêmes priorités… Les séparations, les accidents de la vie… Quand tous décident de ne plus mettre de petits mouchoirs sur les gros bobards, que reste-t-il de l’amitié ?


General
Complete name : C:\Nous.Finirons.Ensemble.2019.FRENCH.720p.BluRay.mkv
Format : Matroska
Format version : Version 2
File size : 5.46 GiB
Duration : 2 h 14 min
Overall bit rate : 5 810 kb/s
Writing application : mkvmerge v6.6.0 ('The Edge Of The In Between') built on Dec 1 2013 17:55:00
Writing library : libebml v1.3.0 + libmatroska v1.4.1

Video
ID : 1
Format : AVC
Format/Info : Advanced Video Codec
Format profile : High@L4.1
Format settings : CABAC / 5 Ref Frames
Format settings, CABAC : Yes
Format settings, Reference : 5 frames
Codec ID : V_MPEG4/ISO/AVC
Duration : 2 h 14 min
Bit rate : 4 301 kb/s
Width : 1 280 pixels
Height : 536 pixels
Display aspect ratio : 2.40:1
Frame rate mode : Constant
Frame rate : 23.976 (24000/1001) FPS
Color space : YUV
Chroma subsampling : 4:2:0
Bit depth : 8 bits
Scan type : Progressive
Bits/(Pixel*Frame) : 0.261
Stream size : 3.93 GiB (72%)
Writing library : x264 core 157 r2969 d4099dd
Encoding settings : cabac=1 / ref=5 / deblock=1:0:0 / analyse=0x3:0x113 / me=umh / subme=8 / psy=1 / psy_rd=1.00:0.00 / mixed_ref=1 / me_range=16 / chroma_me=1 / trellis=1 / 8x8dct=1 / cqm=0 / deadzone=21,11 / fast_pskip=1 / chroma_qp_offset=-2 / threads=17 / lookahead_threads=2 / sliced_threads=0 / nr=0 / decimate=1 / interlaced=0 / bluray_compat=0 / constrained_intra=0 / bframes=3 / b_pyramid=2 / b_adapt=2 / b_bias=0 / direct=3 / weightb=1 / open_gop=0 / weightp=2 / keyint=240 / keyint_min=24 / scenecut=40 / intra_refresh=0 / rc_lookahead=50 / rc=2pass / mbtree=1 / bitrate=4301 / ratetol=1.0 / qcomp=0.60 / qpmin=0 / qpmax=69 / qpstep=4 / cplxblur=20.0 / qblur=0.5 / ip_ratio=1.40 / aq=1:1.00
Language : English
Default : Yes
Forced : No

Audio
ID : 2
Format : DTS
Format/Info : Digital Theater Systems
Codec ID : A_DTS
Duration : 2 h 14 min
Bit rate mode : Constant
Bit rate : 1 509 kb/s
Channel(s) : 6 channels
ChannelLayout_Original : C L R Ls Rs LFE
Sampling rate : 48.0 kHz
Frame rate : 93.750 FPS (512 SPF)
Bit depth : 24 bits
Compression mode : Lossy
Stream size : 1.42 GiB (26%)
Title : French DTS 1509kbps
Language : French
Default : Yes
Forced : No

Menu
00:00:00.000 : en:00:00:00.000
00:08:59.831 : en:00:08:59.831
00:20:55.296 : en:00:20:55.296
00:31:33.517 : en:00:31:33.517
00:45:36.817 : en:00:45:36.817
00:58:39.349 : en:00:58:39.349
01:11:58.439 : en:01:11:58.439
01:25:54.149 : en:01:25:54.149
01:38:33.866 : en:01:38:33.866
01:49:57.841 : en:01:49:57.841
01:59:56.022 : en:01:59:56.022
02:09:23.965 : en:02:09:23.965





General
Complete name : C:\Nous.Finirons.Ensemble.2019.FRENCH.1080p.BluRay.mkv
Format : Matroska
Format version : Version 2
File size : 9.83 GiB
Duration : 2 h 14 min
Overall bit rate : 10.5 Mb/s
Writing application : mkvmerge v6.6.0 ('The Edge Of The In Between') built on Dec 1 2013 17:55:00
Writing library : libebml v1.3.0 + libmatroska v1.4.1

Video
ID : 1
Format : AVC
Format/Info : Advanced Video Codec
Format profile : High@L4.1
Format settings : CABAC / 5 Ref Frames
Format settings, CABAC : Yes
Format settings, Reference : 5 frames
Codec ID : V_MPEG4/ISO/AVC
Duration : 2 h 14 min
Bit rate : 8 959 kb/s
Width : 1 920 pixels
Height : 808 pixels
Display aspect ratio : 2.40:1
Frame rate mode : Constant
Frame rate : 23.976 (24000/1001) FPS
Color space : YUV
Chroma subsampling : 4:2:0
Bit depth : 8 bits
Scan type : Progressive
Bits/(Pixel*Frame) : 0.241
Stream size : 8.22 GiB (84%)
Writing library : x264 core 157 r2969 d4099dd
Encoding settings : cabac=1 / ref=5 / deblock=1:0:0 / analyse=0x3:0x113 / me=umh / subme=8 / psy=1 / psy_rd=1.00:0.00 / mixed_ref=1 / me_range=16 / chroma_me=1 / trellis=1 / 8x8dct=1 / cqm=0 / deadzone=21,11 / fast_pskip=1 / chroma_qp_offset=-2 / threads=18 / lookahead_threads=3 / sliced_threads=0 / nr=0 / decimate=1 / interlaced=0 / bluray_compat=0 / constrained_intra=0 / bframes=3 / b_pyramid=2 / b_adapt=2 / b_bias=0 / direct=3 / weightb=1 / open_gop=0 / weightp=2 / keyint=240 / keyint_min=24 / scenecut=40 / intra_refresh=0 / rc_lookahead=50 / rc=2pass / mbtree=1 / bitrate=8959 / ratetol=1.0 / qcomp=0.60 / qpmin=0 / qpmax=69 / qpstep=4 / cplxblur=20.0 / qblur=0.5 / ip_ratio=1.40 / aq=1:1.00
Language : English
Default : Yes
Forced : No

Audio
ID : 2
Format : DTS
Format/Info : Digital Theater Systems
Codec ID : A_DTS
Duration : 2 h 14 min
Bit rate mode : Constant
Bit rate : 1 509 kb/s
Channel(s) : 6 channels
ChannelLayout_Original : C L R Ls Rs LFE
Sampling rate : 48.0 kHz
Frame rate : 93.750 FPS (512 SPF)
Bit depth : 24 bits
Compression mode : Lossy
Stream size : 1.42 GiB (14%)
Title : French DTS 1509kbps
Language : French
Default : Yes
Forced : No

Menu
00:00:00.000 : en:00:00:00.000
00:08:59.831 : en:00:08:59.831
00:20:55.296 : en:00:20:55.296
00:31:33.517 : en:00:31:33.517
00:45:36.817 : en:00:45:36.817
00:58:39.349 : en:00:58:39.349
01:11:58.439 : en:01:11:58.439
01:25:54.149 : en:01:25:54.149
01:38:33.866 : en:01:38:33.866
01:49:57.841 : en:01:49:57.841
01:59:56.022 : en:01:59:56.022
02:09:23.965 : en:02:09:23.965




Screenshots BDRip 720p

Nous finirons ensemble / Little White Lies 2 (2019)

Nous finirons ensemble / Little White Lies 2 (2019)

Nous finirons ensemble / Little White Lies 2 (2019)


Screenshots BDRip 1080p

Nous finirons ensemble / Little White Lies 2 (2019)

Nous finirons ensemble / Little White Lies 2 (2019)

Nous finirons ensemble / Little White Lies 2 (2019)