Tags
Language
Tags

BBC Horizon - Nuclear Nightmares (2006)

Posted By: Tutorial
SD / DVDRip
BBC Horizon - Nuclear Nightmares (2006)

BBC Horizon - Nuclear Nightmares (2006)
PDTV | 624 x 352 | .AVI/XviD @ 1669 Kbps | 49 min 22 s | 640 MB
Audio: English MP3 130 Kbps, 2 channels | Subs: None
Genre: Documentary

For the last 50 years the world has lived in fear of radiation. Hiroshima, Nagasaki and accidents at nuclear power stations struck terror in people everywhere but Horizon: Nuclear Nightmares has uncovered evidence to suggest these fears could be unfounded.

Horizon: Nuclear Nightmares (first aired on BBC TWO, Thursday 13 July 2006) speaks to a number of scientists who are asking whether we need to think again about the dangers of radiation as there is evidence to suggest that there is a threshold below which radiation may be harmless or even beneficial.

The programme examines in detail the aftermath of the ultimate nuclear nightmare the explosion and fire 20 years ago at Chernobyl Reactor number four. The results of the investigation are astonishing. In the aftermath of Chernobyl experts predicted tens of thousands of deaths from cancer.

Yet, when the authoritative UN Chernobyl Forum report - compiled by scientists from organisations such as the WHO - was published late last year it put the total death toll from the accident at just 59.

General
Complete name : BBC.Horizon.2006.Nuclear.Nightmares.avi
Format : AVI
Format/Info : Audio Video Interleave
File size : 640 MiB
Duration : 49 min 22 s
Overall bit rate mode : Variable
Overall bit rate : 1 812 kb/s
Writing application : VirtualDubMod 1.5.4.1 (build 2178/release)
Writing library : VirtualDubMod build 2178/release

Video
ID : 0
Format : MPEG-4 Visual
Format profile : Advanced Simple@L5
Format settings, BVOP : 1
Format settings, QPel : No
Format settings, GMC : No warppoints
Format settings, Matrix : Default (H.263)
Codec ID : XVID
Codec ID/Hint : XviD
Duration : 49 min 22 s
Bit rate : 1 669 kb/s
Width : 624 pixels
Height : 352 pixels
Display aspect ratio : 16:9
Frame rate : 25.000 FPS
Color space : YUV
Chroma subsampling : 4:2:0
Bit depth : 8 bits
Scan type : Progressive
Compression mode : Lossy
Bits/(Pixel*Frame) : 0.304
Stream size : 589 MiB (92%)
Writing library : XviD 1.2.0SMP (UTC 2006-01-08)

Audio
ID : 1
Format : MPEG Audio
Format version : Version 1
Format profile : Layer 3
Mode : Joint stereo
Codec ID : 55
Codec ID/Hint : MP3
Duration : 49 min 22 s
Bit rate mode : Variable
Bit rate : 130 kb/s
Nominal bit rate : 144 kb/s
Channel(s) : 2 channels
Sampling rate : 48.0 kHz
Compression mode : Lossy
Stream size : 45.9 MiB (7%)
Alignment : Aligned on interleaves
Interleave, duration : 24 ms (0.60 video frame)
Interleave, preload duration : 603 ms
Writing library : LAME3.97b
Encoding settings : -m j -V 4 -q 2 -lowpass 17.5 –abr 144
Screenshots

BBC Horizon - Nuclear Nightmares (2006)

BBC Horizon - Nuclear Nightmares (2006)

Welcome to my blog - daily update!

BBC Horizon - Nuclear Nightmares (2006)