O Doutrinador (2018)

Posted By: Tavaz
720p (HD) / BDRip IMDb
O Doutrinador (2018)

O Doutrinador (2018)
MKV | 1280x692 | Portuguese | H264 @ 5476 kbps | AC-3 @ 192 kbps | 1 h 47 min | 4.24 GiB
Genre: Thriller, Action, Crime, Drama

Um vigilante mascarado surge para atacar a impunidade que permite que políticos e donos de empreiteiras enriqueçam às custas da miséria e do trabalho da população brasileira. A história do homem por trás do disfarce de "Doutrinador" envolve uma jornada pessoal de vingança na qual um agente traumatizado decide fazer justiça com as próprias mãos.

O.Doutrinador.2018.720p.WEBRip.x264.NACIONAL-WWW.BLUDV.TV.mkv (4.2 GB)
BLUDV.TV.mp4 (50.9 MB)



General
Unique ID : 216342547848332472892786429159279655632 (0xA2C20F2222A25AB4AA8FB2451B4F7AD0)
Complete name : ./O.Doutrinador.2018.720p.WEBRip.x264.NACIONAL-WWW.BLUDV.TV.mkv
Format : Matroska
Format version : Version 4 / Version 2
File size : 4.24 GiB
Duration : 1 h 47 min
Overall bit rate : 5 669 kb/s
Movie name : Acesse o ORIGINAL WWW.BLUDV.TV
Encoded date : UTC 2019-01-07 01:36:39
Writing application : mkvmerge v7.8.0 ('River Man') 64bit built on Mar 27 2015 16:31:37
Writing library : libebml v1.3.1 + libmatroska v1.4.2
Cover : Yes
Attachments : cover.jpg

Video
ID : 1
Format : AVC
Format/Info : Advanced Video Codec
Format profile : High@L4.1
Format settings : CABAC / 5 Ref Frames
Format settings, CABAC : Yes
Format settings, RefFrames : 5 frames
Codec ID : V_MPEG4/ISO/AVC
Duration : 1 h 47 min
Bit rate : 5 476 kb/s
Width : 1 280 pixels
Height : 692 pixels
Display aspect ratio : 1.85:1
Frame rate mode : Constant
Frame rate : 23.976 (24000/1001) FPS
Color space : YUV
Chroma subsampling : 4:2:0
Bit depth : 8 bits
Scan type : Progressive
Bits/(Pixel*Frame) : 0.258
Stream size : 4.10 GiB (97%)
Writing library : x264 core 155 r2901 7d0ff22
Encoding settings : cabac=1 / ref=5 / deblock=1:-1:-1 / analyse=0x3:0x133 / me=umh / subme=9 / psy=1 / psy_rd=1.00:0.15 / mixed_ref=1 / me_range=16 / chroma_me=1 / trellis=2 / 8x8dct=1 / cqm=0 / deadzone=21,11 / fast_pskip=1 / chroma_qp_offset=-3 / threads=12 / lookahead_threads=1 / sliced_threads=0 / nr=0 / decimate=1 / interlaced=0 / bluray_compat=0 / constrained_intra=0 / bframes=5 / b_pyramid=2 / b_adapt=2 / b_bias=0 / direct=3 / weightb=1 / open_gop=0 / weightp=2 / keyint=240 / keyint_min=24 / scenecut=40 / intra_refresh=0 / rc_lookahead=60 / rc=2pass / mbtree=1 / bitrate=5476 / ratetol=1.0 / qcomp=0.60 / qpmin=0 / qpmax=69 / qpstep=4 / cplxblur=20.0 / qblur=0.5 / vbv_maxrate=62500 / vbv_bufsize=78125 / nal_hrd=none / filler=0 / ip_ratio=1.40 / aq=1:1.00
Language : Portuguese
Default : Yes
Forced : No
Color range : Limited
Color primaries : BT.709
Transfer characteristics : BT.709
Matrix coefficients : BT.709

Audio
ID : 2
Format : AC-3
Format/Info : Audio Coding 3
Format settings, Endianness : Big
Codec ID : A_AC3
Duration : 1 h 47 min
Bit rate mode : Constant
Bit rate : 192 kb/s
Channel(s) : 2 channels
Channel positions : Front: L R
Sampling rate : 48.0 kHz
Frame rate : 31.250 FPS (1536 SPF)
Bit depth : 16 bits
Compression mode : Lossy
Stream size : 147 MiB (3%)
Language : Portuguese
Service kind : Complete Main
Default : Yes
Forced : No





O Doutrinador (2018)


O Doutrinador (2018)


O Doutrinador (2018)


O Doutrinador (2018)


O Doutrinador (2018)