Tags
Language
Tags

Ocean's Eleven (2001)

Posted By: Tavaz
1080p (FullHD) / BDRip IMDb
Ocean's Eleven (2001)

Ocean's Eleven (2001)
BDRip | MKV | 1920x800 | English | H265 @ 2512 kbps | AC-3 @ 448 kbps | 1 h 56 min | 2.43 GiB
Subtitles: English
Genre: Crime, Thriller

Less than 24 hours into his parole, charismatic thief Danny Ocean is already rolling out his next plan: In one night, Danny's hand-picked crew of specialists will attempt to steal more than $150 million from three Las Vegas casinos. But to score the cash, Danny risks his chances of reconciling with ex-wife, Tess.

495d95f607b945fca5d40e94bf6d63de.mkv (2.4 GB)



General
Unique ID : 199861318628398570569931467248181808858 (0x965BE3CBB5B6920DB6C4CA4E9B4D8EDA)
Complete name : ./495d95f607b945fca5d40e94bf6d63de.mkv
Format : Matroska
Format version : Version 2
File size : 2.43 GiB
Duration : 1 h 56 min
Overall bit rate : 2 979 kb/s
Movie name : Oceans Eleven 2001 BluRay 10Bit 1080p DD5.1 H265-d3g
Encoded date : UTC 2018-02-07 19:03:14
Writing application : DVDFab 10.0.8.0
Writing library : libebml v1.3.4 + libmatroska v1.4.5

Video
ID : 1
Format : HEVC
Format/Info : High Efficiency Video Coding
Format profile : Main 10@L4@Main
Codec ID : V_MPEGH/ISO/HEVC
Duration : 1 h 56 min
Bit rate : 2 512 kb/s
Width : 1 920 pixels
Height : 800 pixels
Display aspect ratio : 2.40:1
Frame rate mode : Constant
Frame rate : 23.976 (24000/1001) FPS
Color space : YUV
Chroma subsampling : 4:2:0
Bit depth : 10 bits
Bits/(Pixel*Frame) : 0.068
Stream size : 2.05 GiB (84%)
Default : Yes
Forced : No
Color range : Limited
Color primaries : BT.709
Transfer characteristics : BT.709
Matrix coefficients : BT.709

Audio
ID : 2
Format : AC-3
Format/Info : Audio Coding 3
Format settings, Endianness : Big
Codec ID : A_AC3
Duration : 1 h 56 min
Bit rate mode : Constant
Bit rate : 448 kb/s
Channel(s) : 6 channels
Channel positions : Front: L C R, Side: L R, LFE
Sampling rate : 48.0 kHz
Frame rate : 31.250 FPS (1536 SPF)
Bit depth : 16 bits
Compression mode : Lossy
Stream size : 374 MiB (15%)
Language : English
Service kind : Complete Main
Default : Yes
Forced : No

Text #1
ID : 3
Format : VobSub
Codec ID : S_VOBSUB
Codec ID/Info : Picture based subtitle format used on DVDs
Duration : 1 h 56 min
Bit rate : 7 940 b/s
Count of elements : 1138
Stream size : 6.61 MiB (0%)
Language : English
Default : No
Forced : No

Text #2
ID : 4
Format : VobSub
Codec ID : S_VOBSUB
Codec ID/Info : Picture based subtitle format used on DVDs
Duration : 1 h 56 min
Bit rate : 8 448 b/s
Count of elements : 1168
Stream size : 7.04 MiB (0%)
Language : English
Default : No
Forced : No

Menu
00:00:00.000 : en:(01)00:00:00:000
00:02:06.960 : en:(02)00:02:06:960
00:05:10.310 : en:(03)00:05:10:310
00:11:16.342 : en:(04)00:11:16:342
00:14:27.032 : en:(05)00:14:27:032
00:18:27.439 : en:(06)00:18:27:439
00:20:27.559 : en:(07)00:20:27:559
00:23:10.222 : en:(08)00:23:10:222
00:25:57.222 : en:(09)00:25:57:222
00:28:17.028 : en:(10)00:28:17:028
00:33:35.179 : en:(11)00:33:35:179
00:39:39.543 : en:(12)00:39:39:543
00:42:34.718 : en:(13)00:42:34:718
00:44:30.000 : en:(14)00:44:30:000
00:48:44.755 : en:(15)00:48:44:755
00:54:00.904 : en:(16)00:54:00:904
00:56:36.226 : en:(17)00:56:36:226
00:58:18.495 : en:(18)00:58:18:495
01:01:52.709 : en:(19)01:01:52:709
01:04:02.505 : en:(20)01:04:02:505
01:05:27.256 : en:(21)01:05:27:256
01:08:31.273 : en:(22)01:08:31:273
01:13:20.229 : en:(23)01:13:20:229
01:16:23.579 : en:(24)01:16:23:579
01:19:30.098 : en:(25)01:19:30:098
01:22:34.616 : en:(26)01:22:34:616
01:25:11.606 : en:(27)01:25:11:606
01:29:34.035 : en:(28)01:29:34:035
01:33:22.597 : en:(29)01:33:22:597
01:35:27.888 : en:(30)01:35:27:888
01:39:16.116 : en:(31)01:39:16:116
01:41:32.086 : en:(32)01:41:32:086
01:44:10.244 : en:(33)01:44:10:244
01:49:12.546 : en:(34)01:49:12:546
01:51:33.853 : en:(35)01:51:33:853
01:56:33.945 : en:(36)01:56:33:945





Ocean's Eleven (2001)


Ocean's Eleven (2001)


Ocean's Eleven (2001)


Ocean's Eleven (2001)


Ocean's Eleven (2001)