Tags
Language
Tags

Olaf's Frozen Adventure (2017)

Posted By: Without
1080p (FullHD) / WEB-DL IMDb
Olaf's Frozen Adventure (2017)

Olaf's Frozen Adventure (2017)
HDRip | AVI | 720x400 | XviD@1561 kb/s | English AC3@384 kb/s | 6 channels | 22 min 15 s | 311 MB
WEB-DL 720p | MKV | 1280x720 | AVC@3882 kb/s | English AC3@384 kb/s
6 channels | 22 min 15 s | 693 MB
WEB-DL 1080p | MKV | 1920x1080 | AVC@5002 kb/s | English AC3@384 kb/s
6 channels | 22 min 15 s | 875 MB
Genre: Animation, Short, Adventure

A Christmas-themed special featuring characters from Walt Disney Pictures' 53rd full-length animated motion picture, "Frozen (2013)".



General
Olafs Frozen Adventure.2017.HDRip.XviD.AC3-EVO\Olafs Frozen Adventure.2017.HDRip.XviD.AC3-EVO.avi
Format : AVI
Format/Info : Audio Video Interleave
File size : 311 MiB
Duration : 22 min 15 s
Overall bit rate : 1 955 kb/s
Writing library : VirtualDub build 32593/release

Video
ID : 0
Format : MPEG-4 Visual
Format profile : Advanced Simple@L5
Format settings, BVOP : 2
Format settings, QPel : No
Format settings, GMC : No warppoints
Format settings, Matrix : Default (H.263)
Muxing mode : Packed bitstream
Codec ID : XVID
Codec ID/Hint : XviD
Duration : 22 min 15 s
Bit rate : 1 561 kb/s
Width : 720 pixels
Height : 400 pixels
Display aspect ratio : 16:9
Frame rate : 23.976 (24000/1001) FPS
Color space : YUV
Chroma subsampling : 4:2:0
Bit depth : 8 bits
Scan type : Progressive
Compression mode : Lossy
Bits/(Pixel*Frame) : 0.226
Stream size : 249 MiB (80%)
Writing library : XviD 66

Audio
ID : 1
Format : AC-3
Format/Info : Audio Coding 3
Mode extension : CM (complete main)
Format settings, Endianness : Big
Codec ID : 2000
Duration : 22 min 15 s
Bit rate mode : Constant
Bit rate : 384 kb/s
Channel(s) : 6 channels
Channel positions : Front: L C R, Side: L R, LFE
Sampling rate : 48.0 kHz
Frame rate : 31.250 FPS (1536 spf)
Bit depth : 16 bits
Compression mode : Lossy
Stream size : 61.1 MiB (20%)
Alignment : Aligned on interleaves
Interleave, duration : 42 ms (1.00 video frame)
Interleave, preload duration : 512 ms

General
Olafs Frozen Adventure.2017.720p.WEB-DL.H264.AC3-EVO\Olafs Frozen Adventure.2017.720p.WEB-DL.H264.AC3-EVO.mkv
Format : Matroska
Format version : Version 4 / Version 2
File size : 693 MiB
Duration : 22 min 15 s
Overall bit rate : 4 353 kb/s
Movie name : EVO
Encoded date : UTC 2017-12-01 16:29:36
Writing application : mkvmerge v6.7.0 ('Back to the Ground') 64bit built on Jan 8 2014 15:10:52
Writing library : libebml v1.3.0 + libmatroska v1.4.1

Video
ID : 1
Format : AVC
Format/Info : Advanced Video Codec
Format profile : High@L3.1
Format settings, CABAC : No
Format settings, ReFrames : 2 frames
Codec ID : V_MPEG4/ISO/AVC
Duration : 22 min 15 s
Bit rate : 3 882 kb/s
Width : 1 280 pixels
Height : 720 pixels
Display aspect ratio : 16:9
Frame rate mode : Constant
Frame rate : 24.000 FPS
Color space : YUV
Chroma subsampling : 4:2:0
Bit depth : 8 bits
Scan type : Progressive
Bits/(Pixel*Frame) : 0.176
Stream size : 618 MiB (89%)
Language : English
Default : Yes
Forced : No
Color range : Limited
Color primaries : BT.709
Transfer characteristics : BT.709
Matrix coefficients : BT.709

Audio
ID : 2
Format : AC-3
Format/Info : Audio Coding 3
Mode extension : CM (complete main)
Format settings, Endianness : Big
Codec ID : A_AC3
Duration : 22 min 15 s
Bit rate mode : Constant
Bit rate : 384 kb/s
Channel(s) : 6 channels
Channel positions : Front: L C R, Side: L R, LFE
Sampling rate : 48.0 kHz
Frame rate : 31.250 FPS (1536 spf)
Bit depth : 16 bits
Compression mode : Lossy
Stream size : 61.1 MiB (9%)
Language : English
Default : Yes
Forced : No

General
Olafs Frozen Adventure.2017.1080p.WEB-DL.H264.AC3-EVO\Olafs Frozen Adventure.2017.1080p.WEB-DL.H264.AC3-EVO.mkv
Format : Matroska
Format version : Version 4 / Version 2
File size : 875 MiB
Duration : 22 min 15 s
Overall bit rate : 5 495 kb/s
Movie name : EVO
Encoded date : UTC 2017-12-01 16:35:33
Writing application : mkvmerge v6.7.0 ('Back to the Ground') 64bit built on Jan 8 2014 15:10:52
Writing library : libebml v1.3.0 + libmatroska v1.4.1

Video
ID : 2
Format : AVC
Format/Info : Advanced Video Codec
Format profile : High@L4
Format settings, CABAC : Yes
Format settings, ReFrames : 4 frames
Codec ID : V_MPEG4/ISO/AVC
Duration : 22 min 15 s
Bit rate : 5 002 kb/s
Width : 1 920 pixels
Height : 1 080 pixels
Display aspect ratio : 16:9
Frame rate mode : Constant
Frame rate : 24.000 FPS
Color space : YUV
Chroma subsampling : 4:2:0
Bit depth : 8 bits
Scan type : Progressive
Bits/(Pixel*Frame) : 0.101
Stream size : 796 MiB (91%)
Language : English
Default : Yes
Forced : No
Color range : Limited
Color primaries : BT.709
Transfer characteristics : BT.709
Matrix coefficients : BT.709

Audio
ID : 1
Format : AC-3
Format/Info : Audio Coding 3
Mode extension : CM (complete main)
Format settings, Endianness : Big
Codec ID : A_AC3
Duration : 22 min 15 s
Bit rate mode : Constant
Bit rate : 384 kb/s
Channel(s) : 6 channels
Channel positions : Front: L C R, Side: L R, LFE
Sampling rate : 48.0 kHz
Frame rate : 31.250 FPS (1536 spf)
Bit depth : 16 bits
Compression mode : Lossy
Stream size : 61.1 MiB (7%)
Language : English
Default : Yes
Forced : No


HDRip Screenshots

Olaf's Frozen Adventure (2017)

Olaf's Frozen Adventure (2017)

Olaf's Frozen Adventure (2017)


WEB-DL 720p Screenshots

Olaf's Frozen Adventure (2017)

Olaf's Frozen Adventure (2017)

Olaf's Frozen Adventure (2017)


WEB-DL 1080p Screenshots

Olaf's Frozen Adventure (2017)

Olaf's Frozen Adventure (2017)

Olaf's Frozen Adventure (2017)


Come Visit My Blog (•‿•)