One Big Hapa Family (2010)

Posted By: Polik88
One Big Hapa Family (2010)

One Big Hapa Family (2010)
DVDRip | English | AVI/XVID 23.976 fps 1007 Kbps | 640x352 | MP3 128 Kbps 48.0 khz | 1h 25mn | 698 MB
Genre: Documentary

After a realization at a family reunion, half Japanese-Canadian filmmaker, Jeff Chiba Stearns, embarks on a journey of self-discovery to find out why everyone in his Japanese-Canadian family married inter-racially after his grandparents’ generation. This feature live action and animated documentary explores why almost 100% of all Japanese-Canadians are marrying inter-racially, the highest out of any other ethnicity in Canada, and how their mixed children perceive their unique multiracial identities. One Big Hapa Family challenges our perceptions of purity and makes us question if mixing is the end of multiculturalism as we know it.
General
Complete name : one.big.hapa.family.2010.avi
Format : AVI
Format/Info : Audio Video Interleave
File size : 698 MiB
Duration : 1h 25mn
Overall bit rate mode : Variable
Overall bit rate : 1 146 Kbps
Writing application : VirtualDubMod 1.5.10.2 (build 2540/release)
Writing library : VirtualDubMod build 2540/release

Video
ID : 0
Format : MPEG-4 Visual
Format profile : Simple@L3
Format settings, BVOP : 2
Format settings, QPel : No
Format settings, GMC : No warppoints
Format settings, Matrix : Default (H.263)
Muxing mode : Packed bitstream
Codec ID : XVID
Codec ID/Hint : XviD
Duration : 1h 25mn
Bit rate : 1 007 Kbps
Width : 640 pixels
Height : 352 pixels
Display aspect ratio : 16:9
Frame rate : 23.976 fps
Color space : YUV
Chroma subsampling : 4:2:0
Bit depth : 8 bits
Scan type : Progressive
Compression mode : Lossy
Bits/(Pixel*Frame) : 0.186
Stream size : 613 MiB (88%)
Writing library : XviD 1.0.3 (UTC 2004-12-20)

Audio
ID : 1
Format : MPEG Audio
Format version : Version 1
Format profile : Layer 3
Mode : Joint stereo
Mode extension : MS Stereo
Codec ID : 55
Codec ID/Hint : MP3
Duration : 1h 25mn
Bit rate mode : Variable
Bit rate : 128 Kbps
Channel(s) : 2 channels
Sampling rate : 48.0 KHz
Compression mode : Lossy
Stream size : 76.9 MiB (11%)
Alignment : Aligned on interleaves
Interleave, duration : 24 ms (0.58 video frame)
Interleave, preload duration : 416 ms
Writing library : LAME3.90.
Encoding settings : -m j -V 4 -q 2 -lowpass 17.6 –abr 128

Screenshots

One Big Hapa Family (2010)

One Big Hapa Family (2010)

One Big Hapa Family (2010)

no mirrors please, Follow The Rules
Visit Polik88 Blog Here
no password