Science Fiction Volume One: The Osiris Child (2017)

Posted By: JohnSmith
Science Fiction Volume One: The Osiris Child (2017)

Science Fiction Volume One: The Osiris Child / Origin Wars (2017)
HDRip | AVI / XviD@1585 kb/s | 720x272 | 1h 39mn | 1.37 GB | English: AC3, 384 kb/s (6 ch)
WEB-DL 720p | MKV / AVC@3945 kb/s | 1280x476 | 1h 39mn | 3.06 GB | English: AC3, 384 kb/s (6 ch)
Genre: Sci-Fi, Fantasy

CONTAINS FLASHING IMAGES: Set in the future in a time of interplanetary colonisation, Sy (Kellan Lutz), a mysterious drifter, meets Kane (Daniel MacPherson), a lieutenant working for an off-world military contractor – EXOR. The unlikely pair must work together to rescue Kane’s young daughter, Indi (Teagan Croft), and reach safety amid an impending global crisis caused by the very company Kane works for.




General
Complete name : D:\Origin.Wars.2017.HDRip.XviD.AC3-EVO\Origin.Wars.2017.HDRip.XviD.AC3-EVO.avi
Format : AVI
Format/Info : Audio Video Interleave
File size : 1.37 GiB
Duration : 1 h 39 min
Overall bit rate : 1 979 kb/s
Writing library : VirtualDub build 32593/release

Video
ID : 0
Format : MPEG-4 Visual
Format profile : Advanced Simple@L5
Format settings, BVOP : 2
Format settings, QPel : No
Format settings, GMC : No warppoints
Format settings, Matrix : Default (H.263)
Muxing mode : Packed bitstream
Codec ID : XVID
Codec ID/Hint : XviD
Duration : 1 h 39 min
Bit rate : 1 585 kb/s
Width : 720 pixels
Height : 272 pixels
Display aspect ratio : 2.647
Frame rate : 23.976 (24000/1001) FPS
Color space : YUV
Chroma subsampling : 4:2:0
Bit depth : 8 bits
Scan type : Progressive
Compression mode : Lossy
Bits/(Pixel*Frame) : 0.338
Stream size : 1.10 GiB (80%)
Writing library : XviD 66

Audio
ID : 1
Format : AC-3
Format/Info : Audio Coding 3
Mode extension : CM (complete main)
Format settings, Endianness : Big
Codec ID : 2000
Duration : 1 h 39 min
Bit rate mode : Constant
Bit rate : 384 kb/s
Channel(s) : 6 channels
Channel positions : Front: L C R, Side: L R, LFE
Sampling rate : 48.0 kHz
Frame rate : 31.250 FPS (1536 spf)
Bit depth : 16 bits
Compression mode : Lossy
Stream size : 272 MiB (19%)
Alignment : Aligned on interleaves
Interleave, duration : 42 ms (1.00 video frame)
Interleave, preload duratio : 512 ms





General
Unique ID : 217543433073004990868195122972336938529 (0xA3A957589F28D9169D3ED0B6A7795E21)
Complete name : D:\HDNL2GSR1051\Origin.Wars.2017.720p.WEB-DL.H264.AC3-EVO\Origin.Wars.2017.720p.WEB-DL.H264.AC3-EVO.mkv
Format : Matroska
Format version : Version 4 / Version 2
File size : 3.06 GiB
Duration : 1 h 39 min
Overall bit rate : 4 417 kb/s
Movie name : EVO
Encoded date : UTC 2017-07-17 10:08:12
Writing application : mkvmerge v6.7.0 ('Back to the Ground') 64bit built on Jan 8 2014 15:10:52
Writing library : libebml v1.3.0 + libmatroska v1.4.1

Video
ID : 2
Format : AVC
Format/Info : Advanced Video Codec
Format profile : Main@L3.1
Format settings, CABAC : No
Format settings, ReFrames : 2 frames
Codec ID : V_MPEG4/ISO/AVC
Duration : 1 h 39 min
Bit rate : 3 945 kb/s
Width : 1 280 pixels
Height : 476 pixels
Display aspect ratio : 2.689
Frame rate mode : Constant
Frame rate : 23.976 FPS
Color space : YUV
Chroma subsampling : 4:2:0
Bit depth : 8 bits
Scan type : Progressive
Bits/(Pixel*Frame) : 0.270
Stream size : 2.73 GiB (89%)
Language : English
Default : Yes
Forced : No
Color range : Limited
Color primaries : BT.709
Transfer characteristics : BT.709
Matrix coefficients : BT.709

Audio
ID : 1
Format : AC-3
Format/Info : Audio Coding 3
Mode extension : CM (complete main)
Format settings, Endianness : Big
Codec ID : A_AC3
Duration : 1 h 39 min
Bit rate mode : Constant
Bit rate : 384 kb/s
Channel(s) : 6 channels
Channel positions : Front: L C R, Side: L R, LFE
Sampling rate : 48.0 kHz
Frame rate : 31.250 FPS (1536 spf)
Bit depth : 16 bits
Compression mode : Lossy
Stream size : 272 MiB (9%)
Language : English
Default : Yes
Forced : No

Menu
00:00:00.000 : en:1
00:08:10.990 : en:2
00:18:10.880 : en:3
00:26:00.599 : en:4
00:37:08.307 : en:5
00:48:43.292 : en:6
00:54:55.706 : en:7
01:02:26.823 : en:8
01:12:52.280 : en:9
01:24:48.704 : en:10




Screenshots HDRip

Science Fiction Volume One: The Osiris Child (2017)

Science Fiction Volume One: The Osiris Child (2017)

Science Fiction Volume One: The Osiris Child (2017)


Screenshots WEB-DL 720p

Science Fiction Volume One: The Osiris Child (2017)

Science Fiction Volume One: The Osiris Child (2017)

Science Fiction Volume One: The Osiris Child (2017)