Our Man Flint (1966)

Posted By: NaVi7
Our Man Flint (1966)

Our Man Flint (1966)
BDRip 720p | MKV / AVC, 5038 Kbps | 1280x544 | 1h 47mn | 4.37 GB
English: DTS, 768 Kbps (1 ch)
Genre: Action | Adventure | Comedy | Fantasy | Sci-Fi

The world's weather seems to have changed dramatically with violent storms everywhere and long dormant volcanoes suddenly erupting. No one is sure what is happening or why but when American intelligence chief Cramden loses yet another team of agents, there appears to be only one man who can do the job: Derek Flint, former super spy, incredibly rich and the ultimate ladies man. Despite Cramden's concerns, Flint is on the job and soon discovers that the Earth's weather is under the control of a secret organization known as GALAXY whose scientists are looking to pacify the world and devote humankind to scientific pursuits.

imdb - 2 wins & 1 nomination.

General
Complete name : our.man.flint.1966.720p.bluray.x264-psychd.mkv
Format : Matroska
Format version : Version 2
File size : 4.37 GiB
Duration : 1h 47mn
Overall bit rate : 5 809 Kbps
Writing application : mkvmerge v4.1.1 ('Bouncin' Back') built on Jul 3 2010 22:54:08
Writing library : libebml v1.0.0 + libmatroska v1.0

Video
ID : 1
Format : AVC
Format/Info : Advanced Video Codec
Format profile : High@L4.1
Format settings, CABAC : Yes
Format settings, ReFrames : 5 frames
Codec ID : V_MPEG4/ISO/AVC
Duration : 1h 47mn
Bit rate : 5 038 Kbps
Width : 1 280 pixels
Height : 544 pixels
Display aspect ratio : 2.35:1
Frame rate mode : Constant
Frame rate : 23.976 fps
Color space : YUV
Chroma subsampling : 4:2:0
Bit depth : 8 bits
Scan type : Progressive
Bits/(Pixel*Frame) : 0.302
Stream size : 3.71 GiB (85%)
Writing library : x264 core 129 r2230 1cffe9f
Encoding settings : cabac=1 / ref=5 / deblock=1:0:0 / analyse=0x3:0x113 / me=umh / subme=8 / psy=1 / psy_rd=1.00:0.00 / mixed_ref=1 / me_range=16 / chroma_me=1 / trellis=1 / 8x8dct=1 / cqm=0 / deadzone=21,11 / fast_pskip=1 / chroma_qp_offset=-2 / threads=12 / lookahead_threads=2 / sliced_threads=0 / nr=0 / decimate=1 / interlaced=0 / bluray_compat=0 / constrained_intra=0 / bframes=3 / b_pyramid=2 / b_adapt=2 / b_bias=0 / direct=3 / weightb=1 / open_gop=0 / weightp=2 / keyint=240 / keyint_min=24 / scenecut=40 / intra_refresh=0 / rc_lookahead=50 / rc=2pass / mbtree=1 / bitrate=5038 / ratetol=1.0 / qcomp=0.60 / qpmin=0 / qpmax=69 / qpstep=4 / cplxblur=20.0 / qblur=0.5 / ip_ratio=1.40 / aq=1:1.00
Language : English
Default : Yes
Forced : No

Audio
ID : 2
Format : DTS
Format/Info : Digital Theater Systems
Mode : 16
Format settings, Endianness : Big
Codec ID : A_DTS
Duration : 1h 47mn
Bit rate mode : Constant
Bit rate : 768 Kbps
Channel(s) : 1 channel
Channel positions : Front: C
Sampling rate : 48.0 KHz
Bit depth : 24 bits
Compression mode : Lossy
Stream size : 592 MiB (13%)
Language : English
Default : Yes
Forced : No


screenshots:

Our Man Flint (1966)

Our Man Flint (1966)

Our Man Flint (1966)


Welcome to My Blog!

Subscribe to My Newsletter!

No more mirrors!

If you want to download it, but found out that links are dead, just leave a comment or PM me!
Download Links:
http://rapidshare.com/files/1694210236/221.html
Links to RapidGator and Uploaded are inside the html file. Download the file and open it in your browser.