Over Beautiful British Columbia (2002)

Posted By: notbanned
Over Beautiful British Columbia (2002)

Over Beautiful British Columbia (2002)
BRRip | AVI | 720x388 | XviD@1574 Kbps | English MP3@192 Kbps | 2 channels | 58mn 42s | 747 MiB
Bluray 1080p | MP4 | 1920x1032p | AVC@2500 Kbps | English AAC@224 Kbps | 2 channels | 58mn 42s | 1.12 GiB
Genre: Documentary

High Definition aerial videography of the beautiful province of British Columbia, Canada.


General
Complete name : Over.Beautiful.British.Columbia.2002.BRRip.avi
Format : AVI
Format/Info : Audio Video Interleave
File size : 747 MiB
Duration : 58mn 42s
Overall bit rate : 1 780 Kbps

Video
ID : 0
Format : MPEG-4 Visual
Format profile : Simple@L5
Format settings, BVOP : No
Format settings, QPel : No
Format settings, GMC : No warppoints
Format settings, Matrix : Default (H.263)
Codec ID : XVID
Codec ID/Hint : XviD
Duration : 58mn 42s
Bit rate : 1 574 Kbps
Width : 720 pixels
Height : 388 pixels
Display aspect ratio : 1.85:1
Original display aspect ratio : 1.85:1
Frame rate : 29.970 fps
Color space : YUV
Chroma subsampling : 4:2:0
Bit depth : 8 bits
Scan type : Progressive
Compression mode : Lossy
Bits/(Pixel*Frame) : 0.188
Stream size : 661 MiB (88%)

Audio
ID : 1
Format : MPEG Audio
Format version : Version 1
Format profile : Layer 3
Mode : Joint stereo
Mode extension : MS Stereo
Codec ID : 55
Codec ID/Hint : MP3
Duration : 58mn 42s
Bit rate mode : Constant
Bit rate : 192 Kbps
Channel(s) : 2 channels
Sampling rate : 48.0 KHz
Compression mode : Lossy
Stream size : 80.6 MiB (11%)
Alignment : Aligned on interleaves
Interleave, duration : 24 ms (0.72 video frame)
Interleave, preload duration : 24 ms


General
Complete name : Over.Beautiful.British.Columbia.2002.1080p.BluRay.mp4
Format : MPEG-4
Format profile : Base Media
Codec ID : isom
File size : 1.12 GiB
Duration : 58mn 42s
Overall bit rate : 2 733 Kbps

Video
ID : 1
Format : AVC
Format/Info : Advanced Video Codec
Format profile : High@L4.1
Format settings, CABAC : Yes
Format settings, ReFrames : 4 frames
Codec ID : avc1
Codec ID/Info : Advanced Video Coding
Duration : 58mn 42s
Bit rate : 2 500 Kbps
Width : 1 920 pixels
Height : 1 032 pixels
Display aspect ratio : 1.85:1
Frame rate mode : Constant
Frame rate : 29.970 fps
Color space : YUV
Chroma subsampling : 4:2:0
Bit depth : 8 bits
Scan type : Progressive
Bits/(Pixel*Frame) : 0.042
Stream size : 1.03 GiB (91%)
Writing library : x264 core 148 r2597M e86f3a1
Encoding settings : cabac=1 / ref=4 / deblock=1:-1:-1 / analyse=0x3:0x113 / me=umh / subme=9 / psy=1 / psy_rd=1.00:0.15 / mixed_ref=1 / me_range=24 / chroma_me=1 / trellis=2 / 8x8dct=1 / cqm=0 / deadzone=21,11 / fast_pskip=1 / chroma_qp_offset=-3 / threads=32 / lookahead_threads=4 / sliced_threads=0 / nr=0 / decimate=1 / interlaced=0 / bluray_compat=0 / constrained_intra=0 / bframes=3 / b_pyramid=2 / b_adapt=2 / b_bias=0 / direct=3 / weightb=1 / open_gop=0 / weightp=2 / keyint=250 / keyint_min=25 / scenecut=40 / intra_refresh=0 / rc_lookahead=50 / rc=2pass / mbtree=1 / bitrate=2500 / ratetol=1.0 / qcomp=0.60 / qpmin=0 / qpmax=69 / qpstep=4 / cplxblur=20.0 / qblur=0.5 / vbv_maxrate=31250 / vbv_bufsize=31250 / nal_hrd=none / filler=0 / ip_ratio=1.40 / aq=3:1.00
Encoded date : UTC 2016-11-07 21:15:13
Tagged date : UTC 2016-11-07 21:15:13

Audio
ID : 2
Format : AAC
Format/Info : Advanced Audio Codec
Format profile : LC
Codec ID : 40
Duration : 58mn 42s
Duration_LastFrame : 32ms
Bit rate mode : Constant
Bit rate : 224 Kbps
Channel(s) : 2 channels
Channel positions : Front: L R
Sampling rate : 48.0 KHz
Compression mode : Lossy
Stream size : 94.1 MiB (8%)
Language : English
Encoded date : UTC 2016-11-07 21:15:13
Tagged date : UTC 2016-11-07 21:15:13


Screenshots BRRip:

Over Beautiful British Columbia (2002)

Over Beautiful British Columbia (2002)

Over Beautiful British Columbia (2002)

Over Beautiful British Columbia (2002)

Screenshots 1080p:

Over Beautiful British Columbia (2002)

Over Beautiful British Columbia (2002)

Over Beautiful British Columbia (2002)

Over Beautiful British Columbia (2002)