PBS - A Hot Dog Program (1999)

Posted By: notbanned
PBS - A Hot Dog Program (1999)

PBS - A Hot Dog Program (1999)
HDTV | 944x720 | .MP4/AVC @ 2402 Kbps | 56mn 24s | Audio: English AAC 132 kbps, 2 channels | Subs: None | 1024 MiB
Genre: Documentary

Enjoy an all-American celebration of what may be the country's most popular fast food. From Connecticut to South Carolina to California, Rick Sebak visits some of the nation's coolest hot dog places, taking viewers inside a giant hot dog-shaped building, stopping at some crazy late-night stands, and looking at how hot dogs are made. Wonder how and when hot dogs became so popular-or what toppings are tops these days? Tune in and find out.
More info


General
Complete name : PBS.A.Hot.Dog.Program.1999.mp4
Format : MPEG-4
Format profile : Base Media
Codec ID : isom
File size : 1 024 MiB
Duration : 56mn 24s
Overall bit rate mode : Variable
Overall bit rate : 2 537 Kbps
Encoded date : UTC 2013-07-23 09:54:52
Tagged date : UTC 2013-07-23 09:54:52

Video
ID : 1
Format : AVC
Format/Info : Advanced Video Codec
Format profile : High@L3.1
Format settings, CABAC : Yes
Format settings, ReFrames : 4 frames
Codec ID : avc1
Codec ID/Info : Advanced Video Coding
Duration : 56mn 24s
Bit rate : 2 402 Kbps
Maximum bit rate : 7 540 Kbps
Width : 944 pixels
Height : 720 pixels
Display aspect ratio : 4:3
Frame rate mode : Constant
Frame rate : 29.970 fps
Color space : YUV
Chroma subsampling : 4:2:0
Bit depth : 8 bits
Scan type : Progressive
Bits/(Pixel*Frame) : 0.118
Stream size : 969 MiB (95%)
Writing library : x264 core 130 r2273 b3065e6
Encoding settings : cabac=1 / ref=4 / deblock=1:0:0 / analyse=0x3:0x113 / me=umh / subme=9 / psy=1 / psy_rd=2.00:0.70 / mixed_ref=1 / me_range=24 / chroma_me=1 / trellis=2 / 8x8dct=1 / cqm=0 / deadzone=21,11 / fast_pskip=1 / chroma_qp_offset=-4 / threads=3 / lookahead_threads=1 / sliced_threads=0 / nr=0 / decimate=1 / interlaced=0 / bluray_compat=0 / constrained_intra=0 / bframes=9 / b_pyramid=2 / b_adapt=2 / b_bias=0 / direct=1 / weightb=1 / open_gop=0 / weightp=2 / keyint=300 / keyint_min=30 / scenecut=40 / intra_refresh=0 / rc_lookahead=40 / rc=crf / mbtree=1 / crf=22.0 / qcomp=0.60 / qpmin=0 / qpmax=69 / qpstep=4 / ip_ratio=1.40 / aq=1:1.00
Tagged date : UTC 2013-07-23 09:55:12
Color primaries : BT.709-5, BT.1361, IEC 61966-2-4, SMPTE RP177
Transfer characteristics : BT.709-5, BT.1361
Matrix coefficients : BT.709-5, BT.1361, IEC 61966-2-4 709, SMPTE RP177

Audio
ID : 2
Format : AAC
Format/Info : Advanced Audio Codec
Format profile : LC
Codec ID : 40
Duration : 56mn 24s
Bit rate mode : Variable
Bit rate : 132 Kbps
Maximum bit rate : 173 Kbps
Channel(s) : 2 channels
Channel positions : Front: L R
Sampling rate : 48.0 KHz
Compression mode : Lossy
Delay relative to video : -3s 337ms
Stream size : 52.9 MiB (5%)
Encoded date : UTC 2013-07-23 09:55:07
Tagged date : UTC 2013-07-23 09:55:12


Screenshots:

PBS - A Hot Dog Program (1999)

PBS - A Hot Dog Program (1999)

PBS - A Hot Dog Program (1999)

PBS - A Hot Dog Program (1999)