Tags
Language
Tags

PBS - Impossible Builds: Series 1 (2018)

Posted By: notbanned
720p (HD) / HDTV IMDb
PBS - Impossible Builds: Series 1 (2018)

PBS - Impossible Builds: Series 1 (2018)
HDTV | 1280x720 | .MP4/AVC @ 3200 Kbps | 3x~55min | 3.93 GiB
Audio: English AAC 160 kbps, 2 channels | Subs: English
Genre: Documentary

Impossible Builds is an Access All Areas look at the creation of some of the world's most ambitious, complex, and technologically advanced construction projects. From subaquatic homes and the ultimate in billionaire luxury, to futuristic towers and pencil thin skyscrapers - these are the structures they said could never be built. But now, using revolutionary technology and cutting-edge construction materials.
Part 1: The Scorpion Tower
Follow the construction of one of the most complex skyscrapers ever to make it off the drawing board. Its design is so radical that construction experts have turned to a building material never before used in skyscrapers.

Part 2: Europe in the Desert
Can six sand islands, poking out of the Persian Gulf near Dubai, be transformed into the most luxurious holiday destination on earth? One man believes they can and he’s risking tens of millions of dollars to prove it.

Part 3: The Floating House
Follow the build to make living beneath the waves into a reality as a team in Dubai attempts to construct a floating house combining the best of land and marine design. Will they achieve the impossible?

General
Complete name : PBS.Impossible.Builds.Series.1.1of3.The.Scorpion.Tower.720p.mp4
Format : MPEG-4
Format profile : Base Media
Codec ID : isom (isom)
File size : 1.33 GiB
Duration : 55 min 30 s
Overall bit rate mode : Variable
Overall bit rate : 3 418 kb/s

Video
ID : 1
Format : AVC
Format/Info : Advanced Video Codec
Format profile : High@L4.1
Format settings, CABAC : Yes
Format settings, ReFrames : 4 frames
Codec ID : avc1
Codec ID/Info : Advanced Video Coding
Duration : 55 min 30 s
Bit rate : 3 200 kb/s
Maximum bit rate : 15.8 Mb/s
Width : 1 280 pixels
Height : 720 pixels
Display aspect ratio : 16:9
Frame rate mode : Constant
Frame rate : 25.000 FPS
Color space : YUV
Chroma subsampling : 4:2:0
Bit depth : 8 bits
Scan type : Progressive
Bits/(Pixel*Frame) : 0.139
Stream size : 1.26 GiB (95%)
Encoding settings : cabac=1 / ref=1 / deblock=1:0:0 / analyse=0x3:0x113 / me=hex / subme=2 / psy=1 / psy_rd=1.00:0.00 / mixed_ref=0 / me_range=16 / chroma_me=1 / trellis=0 / 8x8dct=1 / cqm=0 / deadzone=21,11 / fast_pskip=1 / chroma_qp_offset=0 / threads=6 / lookahead_threads=2 / sliced_threads=0 / nr=0 / decimate=1 / interlaced=0 / bluray_compat=0 / constrained_intra=0 / bframes=3 / b_pyramid=2 / b_adapt=1 / b_bias=0 / direct=1 / weightb=1 / open_gop=0 / weightp=1 / keyint=250 / keyint_min=25 / scenecut=40 / intra_refresh=0 / rc_lookahead=10 / rc=abr / mbtree=1 / bitrate=3200 / ratetol=1.0 / qcomp=0.60 / qpmin=0 / qpmax=69 / qpstep=4 / vbv_maxrate=62500 / vbv_bufsize=78125 / nal_hrd=none / ip_ratio=1.40 / aq=1:1.00
Encoded date : UTC 2018-02-22 12:54:23
Tagged date : UTC 2018-02-22 14:02:14
Color range : Limited
Color primaries : BT.709
Transfer characteristics : BT.709
Matrix coefficients : BT.709

Audio
ID : 2
Format : AAC
Format/Info : Advanced Audio Codec
Format profile : LC
Codec ID : 40
Duration : 55 min 30 s
Bit rate mode : Variable
Bit rate : 160 kb/s
Maximum bit rate : 198 kb/s
Channel(s) : 2 channels
Channel positions : Front: L R
Sampling rate : 48.0 kHz
Frame rate : 46.875 FPS (1024 spf)
Compression mode : Lossy
Stream size : 63.5 MiB (5%)
Language : English
Encoded date : UTC 2018-02-22 14:02:09
Tagged date : UTC 2018-02-22 14:02:14

Text
ID : 3
Format : Timed Text
Codec ID : tx3g
Duration : 55 min 28 s
Bit rate mode : Variable
Bit rate : 103 b/s
Stream size : 41.8 KiB (0%)
Forced : No
Encoded date : UTC 2018-02-22 14:02:14
Tagged date : UTC 2018-02-22 14:02:14


Screenshots:

PBS - Impossible Builds: Series 1 (2018)

PBS - Impossible Builds: Series 1 (2018)

PBS - Impossible Builds: Series 1 (2018)

PBS - Impossible Builds: Series 1 (2018)