Subcategories

PBS - Uranium: Twisting the Dragon's Tail (2015)

Posted By: notbanned
PBS - Uranium: Twisting the Dragon's Tail (2015)

PBS - Uranium: Twisting the Dragon's Tail (2015)
HDTV | 1280x720 | .MP4/AVC @ 1812 Kbps | 2x~54min | 1.73 GiB
Audio: English AAC 137 kbps, 2 channels | Subs: None
Genre: Documentary

Uranium is created violently in the collapse of a star long ago. A massive explosion; a supernova that is the birth our solar system. Uranium is woven throughout the fabric of our Earth, and uranium still crackles, with the heat and violence of that creation. Uranium spits energy unlike any other rock. Its energy transforms DNA, and shapes the very nature of what it means to be human. You are who you are, because of uranium. Uranium is a changeling. Leave a lump of it alone and when you return, it will have turned into something else — all by itself. Uranium is a shape shifter that transforms itself into new forms. A goblin rock that plays tricks — the greatest of which is to transform itself into politics, culture, economics and terror. This rock, considered worthless, transforms itself into the most desirable, the most expensive and the most feared substance on Earth. In a warming world, uranium may yet transform again into our savior as a source of clean, limitless power. Be careful how you wake the Dragon.


General
Complete name : PBS.Uranium.Twisting.the.Dragons.Tail.1of2.720p.mp4
Format : MPEG-4
Format profile : Base Media
Codec ID : isom (isom)
File size : 767 MiB
Duration : 54 min 53 s
Overall bit rate mode : Variable
Overall bit rate : 1 953 kb/s

Video
ID : 1
Format : AVC
Format/Info : Advanced Video Codec
Format profile : High@L4.1
Format settings, CABAC : Yes
Format settings, ReFrames : 9 frames
Codec ID : avc1
Codec ID/Info : Advanced Video Coding
Duration : 54 min 53 s
Bit rate : 1 812 kb/s
Maximum bit rate : 8 886 kb/s
Width : 1 280 pixels
Height : 720 pixels
Display aspect ratio : 16:9
Frame rate mode : Constant
Frame rate : 25.000 FPS
Color space : YUV
Chroma subsampling : 4:2:0
Bit depth : 8 bits
Scan type : Progressive
Bits/(Pixel*Frame) : 0.079
Stream size : 711 MiB (93%)
Writing library : x264 core 148 r2579 73ae2d1
Encoding settings : cabac=1 / ref=9 / deblock=1:-1:-1 / analyse=0x3:0x133 / me=umh / subme=10 / psy=1 / psy_rd=1.00:0.00 / mixed_ref=1 / me_range=24 / chroma_me=1 / trellis=2 / 8x8dct=1 / cqm=0 / deadzone=21,11 / fast_pskip=1 / chroma_qp_offset=-2 / threads=3 / lookahead_threads=1 / sliced_threads=0 / nr=0 / decimate=1 / interlaced=0 / bluray_compat=0 / constrained_intra=0 / bframes=9 / b_pyramid=2 / b_adapt=2 / b_bias=0 / direct=3 / weightb=1 / open_gop=0 / weightp=2 / keyint=300 / keyint_min=25 / scenecut=40 / intra_refresh=0 / rc_lookahead=60 / rc=crf / mbtree=1 / crf=21.0 / qcomp=0.60 / qpmin=0 / qpmax=69 / qpstep=4 / vbv_maxrate=62500 / vbv_bufsize=78125 / crf_max=0.0 / nal_hrd=none / filler=0 / ip_ratio=1.40 / aq=1:1.00
Encoded date : UTC 2015-07-29 23:40:56
Tagged date : UTC 2015-07-30 01:08:37

Audio
ID : 2
Format : AAC
Format/Info : Advanced Audio Codec
Format profile : LC
Codec ID : 40
Duration : 54 min 53 s
Bit rate mode : Variable
Bit rate : 137 kb/s
Maximum bit rate : 188 kb/s
Channel(s) : 2 channels
Channel positions : Front: L R
Sampling rate : 48.0 kHz
Frame rate : 46.875 FPS (1024 spf)
Compression mode : Lossy
Stream size : 53.9 MiB (7%)
Language : English
Encoded date : UTC 2015-07-30 01:03:55
Tagged date : UTC 2015-07-30 01:08:37

Text
ID : 3
Format : Timed Text
Codec ID : tx3g
Duration : 54 min 52 s
Bit rate mode : Variable
Bit rate : 113 b/s
Stream size : 45.2 KiB (0%)
Language : English
Forced : No
Encoded date : UTC 2015-07-30 01:08:37
Tagged date : UTC 2015-07-30 01:08:37


Screenshots:

PBS - Uranium: Twisting the Dragon's Tail (2015)

PBS - Uranium: Twisting the Dragon's Tail (2015)

PBS - Uranium: Twisting the Dragon's Tail (2015)

PBS - Uranium: Twisting the Dragon's Tail (2015)