PBS American Experience - Silicon Valley (2013)

Posted By: Polik88
PBS American Experience - Silicon Valley (2013)

PBS American Experience - Silicon Valley (2013)
English | MP4 | 960x540 | AVC 1495 Kbps 29.970 fps | AAC 129 Kbps 48.0 khz | 1h 24mn | 981 MB
Genre: Documentary

SILICON VALLEY tells the story of the pioneering scientists who transformed rural Santa Clara County into the hub of technological ingenuity we now know as Silicon Valley. The film spotlights the creativity of the young men who founded Fairchild Semiconductor and in particular the brilliant, charismatic young physicist Robert Noyce. Their radical innovations would include the integrated circuit that helped make the United States a leader in both space exploration and the personal computer revolution, transforming the way the world works, plays and communicates, making possible everything from the Apollo program to smart phones, from pacemakers to microwaves.
General
Complete name : PBS.American.Experience.2013.Silicon.Valley.mp4
Format : MPEG-4
Format profile : Base Media
Codec ID : isom
File size : 981 MiB
Duration : 1h 24mn
Overall bit rate mode : Variable
Overall bit rate : 1 628 Kbps
Encoded date : UTC 2013-02-10 13:29:05
Tagged date : UTC 2013-02-10 13:29:05

Video
ID : 1
Format : AVC
Format/Info : Advanced Video Codec
Format profile : High@L3.1
Format settings, CABAC : Yes
Format settings, ReFrames : 6 frames
Codec ID : avc1
Codec ID/Info : Advanced Video Coding
Duration : 1h 24mn
Bit rate : 1 495 Kbps
Maximum bit rate : 5 677 Kbps
Width : 960 pixels
Height : 540 pixels
Display aspect ratio : 16:9
Frame rate mode : Constant
Frame rate : 29.970 fps
Color space : YUV
Chroma subsampling : 4:2:0
Bit depth : 8 bits
Scan type : Progressive
Bits/(Pixel*Frame) : 0.096
Stream size : 901 MiB (92%)
Writing library : x264 core 120
Encoding settings : cabac=1 / ref=6 / deblock=1:0:0 / analyse=0x3:0x113 / me=umh / subme=10 / psy=1 / psy_rd=2.00:1.00 / mixed_ref=1 / me_range=24 / chroma_me=1 / trellis=2 / 8x8dct=1 / cqm=0 / deadzone=21,11 / fast_pskip=1 / chroma_qp_offset=-4 / threads=3 / sliced_threads=0 / nr=0 / decimate=1 / interlaced=0 / bluray_compat=0 / constrained_intra=0 / bframes=9 / b_pyramid=2 / b_adapt=2 / b_bias=0 / direct=1 / weightb=1 / open_gop=0 / weightp=2 / keyint=300 / keyint_min=30 / scenecut=40 / intra_refresh=0 / rc_lookahead=50 / rc=crf / mbtree=1 / crf=21.0 / qcomp=0.60 / qpmin=3 / qpmax=69 / qpstep=4 / ip_ratio=1.40 / aq=1:1.00
Tagged date : UTC 2013-02-10 13:30:33
Color primaries : BT.709-5, BT.1361, IEC 61966-2-4, SMPTE RP177
Transfer characteristics : BT.709-5, BT.1361
Matrix coefficients : BT.709-5, BT.1361, IEC 61966-2-4 709, SMPTE RP177

Audio
ID : 2
Format : AAC
Format/Info : Advanced Audio Codec
Format profile : LC
Codec ID : 40
Duration : 1h 24mn
Bit rate mode : Variable
Bit rate : 129 Kbps
Maximum bit rate : 185 Kbps
Channel(s) : 2 channels
Channel positions : Front: L R
Sampling rate : 48.0 KHz
Compression mode : Lossy
Delay relative to video : -3s 337ms
Stream size : 77.7 MiB (8%)
Encoded date : UTC 2013-02-10 13:30:26
Tagged date : UTC 2013-02-10 13:30:33

Screenshots

PBS American Experience - Silicon Valley (2013)

PBS American Experience - Silicon Valley (2013)

PBS American Experience - Silicon Valley (2013)

PBS American Experience - Silicon Valley (2013)

no mirrors please, Follow The Rules
Visit Polik88 Blog Here
no password