PBS Frontline - The Untouchables (2013)

Posted By: Polik88
PBS Frontline - The Untouchables (2013)

PBS Frontline - The Untouchables (2013)
English | MP4 | 960x540 | AVC 1102 Kbps 29.970 fps | AAC 129 Kbps 48.0 khz | 55mn 38s | 492 MB
Genre: Documentary

Are the CEOs of mega-banks too big to jail? Though fraudulent practices at banks contributed to America's financial meltdown, to date no Wall Street titan has been convicted of a crime connected to the crisis. FRONTLINE investigates why Wall Street's leaders have escaped prosecution.
General
Complete name : PBS.Frontline.2013.The.Untouchables.mp4
Format : MPEG-4
Format profile : Base Media
Codec ID : isom
File size : 492 MiB
Duration : 55mn 38s
Overall bit rate mode : Variable
Overall bit rate : 1 235 Kbps
Encoded date : UTC 2013-01-23 09:55:18
Tagged date : UTC 2013-01-23 09:55:18

Video
ID : 1
Format : AVC
Format/Info : Advanced Video Codec
Format profile : High@L3.1
Format settings, CABAC : Yes
Format settings, ReFrames : 6 frames
Codec ID : avc1
Codec ID/Info : Advanced Video Coding
Duration : 55mn 38s
Bit rate : 1 102 Kbps
Maximum bit rate : 7 088 Kbps
Width : 960 pixels
Height : 540 pixels
Display aspect ratio : 16:9
Frame rate mode : Constant
Frame rate : 29.970 fps
Color space : YUV
Chroma subsampling : 4:2:0
Bit depth : 8 bits
Scan type : Progressive
Bits/(Pixel*Frame) : 0.071
Stream size : 439 MiB (89%)
Writing library : x264 core 120
Encoding settings : cabac=1 / ref=6 / deblock=1:0:0 / analyse=0x3:0x113 / me=umh / subme=10 / psy=1 / psy_rd=2.00:1.00 / mixed_ref=1 / me_range=24 / chroma_me=1 / trellis=2 / 8x8dct=1 / cqm=0 / deadzone=21,11 / fast_pskip=1 / chroma_qp_offset=-4 / threads=3 / sliced_threads=0 / nr=0 / decimate=1 / interlaced=0 / bluray_compat=0 / constrained_intra=0 / bframes=9 / b_pyramid=2 / b_adapt=2 / b_bias=0 / direct=1 / weightb=1 / open_gop=0 / weightp=2 / keyint=300 / keyint_min=30 / scenecut=40 / intra_refresh=0 / rc_lookahead=50 / rc=crf / mbtree=1 / crf=21.0 / qcomp=0.60 / qpmin=3 / qpmax=69 / qpstep=4 / ip_ratio=1.40 / aq=1:1.00
Tagged date : UTC 2013-01-23 09:56:09
Color primaries : BT.709-5, BT.1361, IEC 61966-2-4, SMPTE RP177
Transfer characteristics : BT.709-5, BT.1361
Matrix coefficients : BT.709-5, BT.1361, IEC 61966-2-4 709, SMPTE RP177

Audio
ID : 2
Format : AAC
Format/Info : Advanced Audio Codec
Format profile : LC
Codec ID : 40
Duration : 55mn 38s
Bit rate mode : Variable
Bit rate : 129 Kbps
Maximum bit rate : 188 Kbps
Channel(s) : 2 channels
Channel positions : Front: L R
Sampling rate : 48.0 KHz
Compression mode : Lossy
Delay relative to video : -3s 337ms
Stream size : 51.3 MiB (10%)
Encoded date : UTC 2013-01-23 09:56:07
Tagged date : UTC 2013-01-23 09:56:09

Screenshots

PBS Frontline - The Untouchables (2013)

PBS Frontline - The Untouchables (2013)

PBS Frontline - The Untouchables (2013)

no mirrors please, Follow The Rules
Visit Polik88 Blog Here
no password