PBS: Life On Fire (2013)

Posted By: Polik88
PBS: Life On Fire (2013)

PBS: Life On Fire (2013)
English | MP4 | 640x360 | AVC 800 Kbps 29.970 fps | AAC 96.0 Kbps 48.0 khz | 3x52mn | 3x342 MB
Genre: Documentary

Narrated by Oscar-winning actor Jeremy Irons, "Life on Fire" series offers a close up look at volcanoes, providing viewers with a never seen before look at their effect on the environment around them.Each episode of "Life on Fire" paints survival stories around different volcanoes. From the dark abyss to pristine snow-capped peaks, spectacular scenery provides the backdrop for the extraordinary animals and plants that have learned to juggle with fire. Each time a volcano erupts, animals have a choice: face the consequences or flee. And because these animals are adapted to living with fire, often they run straight into another volcano and another explosion- out of the frying pan into the fire. Fragile and engaging, these creatures teach us lessons in survival in a world as fascinating as it is dangerous.

Ep. 1 "Iceleandic Volcanoes" - The 2010 eruption of Iceland's Eyjafjallajokull volcano provoked economic chaos, paralyzing air traffic for days. This eruption, however, was mild. Much more powerful volcanoes in Iceland are ready to wake up. Through spectacular aerial footage of this country, which is an accumulation of lava and ash, a maze of craters and faults, the episode tries to discern which volcano will awaken next.

Ep. 2 "The Volcano Doctors" - Whether the Philippines, Papua New Guinea, Colombia, Chile, Italy or Iceland, each of these countries is home to active volcanoes that are a threat to the populations settled at their feet. Every day, lava, ash, gas, bombs and avalanches are likely to slide down the gaping mouths of the rock giants. To avoid disasters, volcanologists are asked to anticipate and warn.

Ep. 3 "The Salmon Surprise" - In Alaska, the fresh water that feeds the rivers is snowmelt from North America’s highest mountains and most active volcanoes. Time and again, they erupt and poison the rivers. Scientists have only just begun to piece together what might have happened nearly 2,000 years ago, when one race of salmon faced the death of their natal river and were forced back to the open ocean.
General
Complete name : Life.On.Fire.E01.Icelandic.Volcanoes.mp4
Format : MPEG-4
Format profile : Base Media
Codec ID : isom
File size : 343 MiB
Duration : 52mn 58s
Overall bit rate : 904 Kbps
Writing application : Lavf53.21.0

Video
ID : 1
Format : AVC
Format/Info : Advanced Video Codec
Format profile : Main@L3.0
Format settings, CABAC : Yes
Format settings, ReFrames : 3 frames
Codec ID : avc1
Codec ID/Info : Advanced Video Coding
Duration : 52mn 58s
Bit rate : 800 Kbps
Width : 640 pixels
Height : 360 pixels
Display aspect ratio : 16:9
Frame rate mode : Variable
Frame rate : 29.970 fps
Minimum frame rate : 29.412 fps
Maximum frame rate : 30.303 fps
Color space : YUV
Chroma subsampling : 4:2:0
Bit depth : 8 bits
Scan type : Progressive
Bits/(Pixel*Frame) : 0.116
Stream size : 303 MiB (88%)
Writing library : Zencoder Video Encoding System

Audio
ID : 2
Format : AAC
Format/Info : Advanced Audio Codec
Format profile : LC
Codec ID : 40
Duration : 52mn 58s
Bit rate mode : Constant
Bit rate : 96.0 Kbps
Channel(s) : 2 channels
Channel positions : Front: L R
Sampling rate : 48.0 KHz
Compression mode : Lossy
Stream size : 36.4 MiB (11%)

Screenshots

PBS: Life On Fire (2013)

PBS: Life On Fire (2013)

PBS: Life On Fire (2013)

no mirrors please, Follow The Rules
Visit Polik88 Blog Here
no password