PBS Nature - Cuba: The Accidental Eden (2010) (Repost)

Posted By: Polik88
PBS Nature - Cuba: The Accidental Eden (2010) (Repost)

PBS Nature - Cuba: The Accidental Eden (2010) (Repost)
English | MP4 | 848x480 | AVC 1714 Kbps 23.976 fps | AAC 129 Kbps 48.0 khz | 53mn 20s | 705 MB
Genre: Documentary

This small island's varied landscape, its location in the heart of the Caribbean and its longstanding place at the center of Cold War politics have all combined to preserve some of the richest and most unusual natural environments of the hemisphere. For decades, Cuba's wild landscapes lay untouched while its Caribbean neighbors poisoned or paved over their ecological riches. Now, Cuba's priceless treasures are about to face an onslaught. Tourism is already on the rise and most experts predict tourism will double once the US trade embargo ends. What will happen to Cuba's stunning biodiversity - an island filled with amphibians, reptiles and the most biologically diverse freshwater fish in the region.
General
Complete name : PBS.Nature.2010.Cuba.The.Accidental.Eden.mp4
Format : MPEG-4
Format profile : Base Media
Codec ID : isom
File size : 705 MiB
Duration : 53mn 20s
Overall bit rate mode : Variable
Overall bit rate : 1 847 Kbps
Encoded date : UTC 2013-01-21 07:41:50
Tagged date : UTC 2013-01-21 07:41:50

Video
ID : 1
Format : AVC
Format/Info : Advanced Video Codec
Format profile : High@L3.1
Format settings, CABAC : Yes
Format settings, ReFrames : 6 frames
Codec ID : avc1
Codec ID/Info : Advanced Video Coding
Duration : 53mn 20s
Bit rate : 1 714 Kbps
Maximum bit rate : 8 665 Kbps
Width : 848 pixels
Height : 480 pixels
Display aspect ratio : 16:9
Frame rate mode : Constant
Frame rate : 23.976 fps
Color space : YUV
Chroma subsampling : 4:2:0
Bit depth : 8 bits
Scan type : Progressive
Bits/(Pixel*Frame) : 0.176
Stream size : 654 MiB (93%)
Writing library : x264 core 120
Encoding settings : cabac=1 / ref=6 / deblock=1:0:0 / analyse=0x3:0x113 / me=umh / subme=10 / psy=1 / psy_rd=2.00:1.00 / mixed_ref=1 / me_range=24 / chroma_me=1 / trellis=2 / 8x8dct=1 / cqm=0 / deadzone=21,11 / fast_pskip=1 / chroma_qp_offset=-4 / threads=3 / sliced_threads=0 / nr=0 / decimate=1 / interlaced=0 / bluray_compat=0 / constrained_intra=0 / bframes=9 / b_pyramid=2 / b_adapt=2 / b_bias=0 / direct=1 / weightb=1 / open_gop=0 / weightp=2 / keyint=240 / keyint_min=24 / scenecut=40 / intra_refresh=0 / rc_lookahead=50 / rc=crf / mbtree=1 / crf=21.0 / qcomp=0.60 / qpmin=3 / qpmax=69 / qpstep=4 / ip_ratio=1.40 / aq=1:1.00
Tagged date : UTC 2013-01-21 07:42:24
Color primaries : BT.709-5, BT.1361, IEC 61966-2-4, SMPTE RP177
Transfer characteristics : BT.709-5, BT.1361
Matrix coefficients : BT.709-5, BT.1361, IEC 61966-2-4 709, SMPTE RP177

Audio
ID : 2
Format : AAC
Format/Info : Advanced Audio Codec
Format profile : LC
Codec ID : 40
Duration : 53mn 20s
Bit rate mode : Variable
Bit rate : 129 Kbps
Maximum bit rate : 166 Kbps
Channel(s) : 2 channels
Channel positions : Front: L R
Sampling rate : 48.0 KHz
Compression mode : Lossy
Delay relative to video : -3s 337ms
Stream size : 49.2 MiB (7%)
Encoded date : UTC 2013-01-21 07:42:21
Tagged date : UTC 2013-01-21 07:42:24

Screenshots

PBS Nature - Cuba: The Accidental Eden (2010) (Repost)

PBS Nature - Cuba: The Accidental Eden (2010) (Repost)

PBS Nature - Cuba: The Accidental Eden (2010) (Repost)

no mirrors please, Follow The Rules
Visit Polik88 Blog Here
no password