PBS Nova - Ghosts of Machu Picchu (2010) (Repost)

Posted By: Polik88
PBS Nova - Ghosts of Machu Picchu (2010) (Repost)

PBS Nova - Ghosts of Machu Picchu (2010) (Repost)
English | MP4 | 848x480 | AVC 1827 Kbps 28.830 fps | AAC 129 Kbps 48.0 khz | 53mn 37s | 752 MB
Genre: Documentary

Perched atop a mountain crest, mysteriously abandoned more than four centuries ago, Machu Picchu is the most famous archeological ruin in the Western Hemisphere and an iconic symbol of the power and engineering prowess of the Inca. In the years since Machu Picchu was discovered by Hiram Bingham in 1911, there have been countless theories about this "Lost City of the Incas," yet it remains an enigma. Why did the Incas build it on such an inaccessible site? Who lived among its stone buildings, farmed its emerald green terraces, and drank from its sophisticated aqueduct system? NOVA joins a new generation of archeologists as they probe areas of Machu Picchu that haven't been touched since the time of the Incas. See what they discover when they unearth burials of the people who built the sacred site.
General
Complete name : PBS.NOVA.2010.Ghosts.of.Machu.Picchu.mp4
Format : MPEG-4
Format profile : Base Media
Codec ID : isom
File size : 752 MiB
Duration : 53mn 37s
Overall bit rate mode : Variable
Overall bit rate : 1 960 Kbps
Encoded date : UTC 2013-01-22 02:17:38
Tagged date : UTC 2013-01-22 02:17:38

Video
ID : 1
Format : AVC
Format/Info : Advanced Video Codec
Format profile : High@L3.1
Format settings, CABAC : Yes
Format settings, ReFrames : 6 frames
Codec ID : avc1
Codec ID/Info : Advanced Video Coding
Duration : 53mn 37s
Source duration : 53mn 37s
Bit rate : 1 827 Kbps
Maximum bit rate : 11.1 Mbps
Width : 848 pixels
Height : 480 pixels
Display aspect ratio : 16:9
Frame rate mode : Variable
Frame rate : 28.830 fps
Minimum frame rate : 13.321 fps
Maximum frame rate : 60.000 fps
Color space : YUV
Chroma subsampling : 4:2:0
Bit depth : 8 bits
Scan type : Progressive
Bits/(Pixel*Frame) : 0.156
Stream size : 701 MiB (93%)
Source stream size : 701 MiB (93%)
Writing library : x264 core 120
Encoding settings : cabac=1 / ref=6 / deblock=1:0:0 / analyse=0x3:0x113 / me=umh / subme=10 / psy=1 / psy_rd=2.00:1.00 / mixed_ref=1 / me_range=24 / chroma_me=1 / trellis=2 / 8x8dct=1 / cqm=0 / deadzone=21,11 / fast_pskip=1 / chroma_qp_offset=-4 / threads=3 / sliced_threads=0 / nr=0 / decimate=1 / interlaced=0 / bluray_compat=0 / constrained_intra=0 / bframes=9 / b_pyramid=2 / b_adapt=2 / b_bias=0 / direct=1 / weightb=1 / open_gop=0 / weightp=2 / keyint=300 / keyint_min=30 / scenecut=40 / intra_refresh=0 / rc_lookahead=50 / rc=crf / mbtree=1 / crf=21.0 / qcomp=0.60 / qpmin=3 / qpmax=69 / qpstep=4 / ip_ratio=1.40 / aq=1:1.00
Tagged date : UTC 2013-01-22 02:18:17
Color primaries : BT.709-5, BT.1361, IEC 61966-2-4, SMPTE RP177
Transfer characteristics : BT.709-5, BT.1361
Matrix coefficients : BT.709-5, BT.1361, IEC 61966-2-4 709, SMPTE RP177

Audio
ID : 2
Format : AAC
Format/Info : Advanced Audio Codec
Format profile : LC
Codec ID : 40
Duration : 53mn 37s
Bit rate mode : Variable
Bit rate : 129 Kbps
Maximum bit rate : 145 Kbps
Channel(s) : 2 channels
Channel positions : Front: L R
Sampling rate : 48.0 KHz
Compression mode : Lossy
Delay relative to video : -12s 515ms
Stream size : 49.5 MiB (7%)
Encoded date : UTC 2013-01-22 02:18:03
Tagged date : UTC 2013-01-22 02:18:17

Screenshots

PBS Nova - Ghosts of Machu Picchu 			  		 	 	  		 	    	 			   		   	  			  	  		 		   	 			   		  		  		   	  	 			   		   	  		   	  		 						 (2010) (Repost)

PBS Nova - Ghosts of Machu Picchu (2010) (Repost)

PBS Nova - Ghosts of Machu Picchu (2010) (Repost)

no mirrors please, Follow The Rules
Visit Polik88 Blog Here
no password