The American Experience: Walt Whitman (2008)

Posted By: vivid23
The American Experience: Walt Whitman (2008)

The American Experience: Walt Whitman (2008)
DVDrip | 718x480 | MKV/x264 @ 2159 Kbps | 103mn | Audio: English AC3 448 kbps, 6 channels | Subs: None | 1.92 GB
Genre: Documentary

In this documentary exploring the life of Leaves of Grass author Walt Whitman, fans of the poet are invited to explore his life story from the days of his working-class childhood, through his time as a Brooklyn-based newspaper reporter, and his unending quest to ensure that his work gained the attention he felt it so rightly deserved.

More info

Video
ID : 1
Format : AVC
Format/Info : Advanced Video Codec
Format profile : High@L4.0
Format settings, CABAC : Yes
Format settings, ReFrames : 16 frames
Codec ID : V_MPEG4/ISO/AVC
Duration : 1h 43mn
Bit rate : 2 159 Kbps
Width : 718 pixels
Height : 480 pixels
Display aspect ratio : 16:9
Original display aspect ratio : 16:9
Frame rate : 29.970 fps
Color space : YUV
Chroma subsampling : 4:2:0
Bit depth : 8 bits
Scan type : Progressive
Bits/(Pixel*Frame) : 0.209
Stream size : 1.56 GiB (81%)
Writing library : x264 core 120
Encoding settings : cabac=1 / ref=16 / deblock=1:-3:-3 / analyse=0x3:0x133 / me=umh / subme=10 / psy=1 / psy_rd=1.00:0.00 / mixed_ref=1 / me_range=32 / chroma_me=1 / trellis=2 / 8x8dct=1 / cqm=0 / deadzone=21,11 / fast_pskip=1 / chroma_qp_offset=-2 / threads=6 / sliced_threads=0 / nr=0 / decimate=0 / interlaced=0 / bluray_compat=0 / constrained_intra=0 / bframes=16 / b_pyramid=2 / b_adapt=2 / b_bias=0 / direct=3 / weightb=1 / open_gop=0 / weightp=1 / keyint=300 / keyint_min=30 / scenecut=40 / intra_refresh=0 / rc_lookahead=10 / rc=crf / mbtree=1 / crf=17.0 / qcomp=0.60 / qpmin=3 / qpmax=69 / qpstep=4 / ip_ratio=1.40 / aq=1:1.00
Language : English
Color primaries : BT.601-6 525, BT.1358 525, BT.1700 NTSC, SMPTE 170M
Transfer characteristics : BT.709-5, BT.1361
Matrix coefficients : BT.601-6 525, BT.1358 525, BT.1700 NTSC, SMPTE 170M

Audio
ID : 2
Format : AC-3
Format/Info : Audio Coding 3
Mode extension : CM (complete main)
Codec ID : A_AC3
Duration : 1h 43mn
Bit rate mode : Constant
Bit rate : 448 Kbps
Channel(s) : 6 channels
Channel positions : Front: L C R, Side: L R, LFE
Sampling rate : 48.0 KHz
Bit depth : 16 bits
Compression mode : Lossy
Stream size : 331 MiB (17%)
Language : English

Menu
00:00:00.000 : Chapter 1
00:03:23.603 : Chapter 2
00:10:41.941 : Chapter 3
00:21:35.093 : Chapter 4
00:32:24.542 : Chapter 5
00:48:14.391 : Chapter 6
00:57:16.332 : Chapter 7
01:10:36.732 : Chapter 8
01:18:53.128 : Chapter 9
01:27:28.243 : Chapter 10
01:40:17.811 : Chapter 11
01:43:16.223 : Chapter 12


The American Experience: Walt Whitman (2008)

The American Experience: Walt Whitman (2008)


Feel free to contact me when links are dead



http://filepost.com/files/e4882c14/TheAmericanExperience.part1.rar
http://filepost.com/files/1ce3562a/TheAmericanExperience.part2.rar
http://filepost.com/files/337e1e7m/TheAmericanExperience.part3.rar
http://filepost.com/files/1d911mfb/TheAmericanExperience.part4.rar
http://filepost.com/files/8m52fm56/TheAmericanExperience.part5.rar
http://filepost.com/files/31em2547/TheAmericanExperience.part5.rar
http://filepost.com/files/84c2f86e/TheAmericanExperience.part6.rar
http://filepost.com/files/m9df266e/TheAmericanExperience.part7.rar
http://filepost.com/files/6e3ebm97/TheAmericanExperience.part8.rar

http://uploaded.net/file/ljri06hk/TheAmericanExperience.part1.rar
http://uploaded.net/file/t9qudhhn/TheAmericanExperience.part2.rar
http://uploaded.net/file/pm6gu8cf/TheAmericanExperience.part3.rar
http://uploaded.net/file/geo3eqsd/TheAmericanExperience.part4.rar
http://uploaded.net/file/ax0xgotq/TheAmericanExperience.part5.rar
http://uploaded.net/file/nwmcisck/TheAmericanExperience.part6.rar
http://uploaded.net/file/zi5xm3b9/TheAmericanExperience.part7.rar
http://uploaded.net/file/1221z49h/TheAmericanExperience.part8.rar

http://rapidgator.net/file/64387461/TheAmericanExperience.part1.rar
http://rapidgator.net/file/64387466/TheAmericanExperience.part2.rar
http://rapidgator.net/file/64387509/TheAmericanExperience.part3.rar
http://rapidgator.net/file/64387516/TheAmericanExperience.part4.rar
http://rapidgator.net/file/64387519/TheAmericanExperience.part5.rar
http://rapidgator.net/file/64387571/TheAmericanExperience.part6.rar
http://rapidgator.net/file/64387572/TheAmericanExperience.part7.rar
http://rapidgator.net/file/64387523/TheAmericanExperience.part8.rar