Tags
Language
Tags

BBC Panorama - The Virus vs the Vaccine (2021)

Posted By:
1080p (FullHD) / WEBRip
BBC Panorama  - The Virus vs the Vaccine (2021)

BBC Panorama - The Virus vs the Vaccine (2021)
WEBRip | 1280 x 720 | .MKV/AVC @ 2342 Kbps | 28 min 27 s | 503 MB
Audio: English AAC LC 128 Kbps, 2 channels | Subs: English
Genre: Documentary, News

With the country locked down again in the battle against coronavirus, Panorama reporter Clive Myrie asks what it will take to get through this…

General
Unique ID : 37572564264778220929948991480917886359 (0x1C443670EB0F3F26E8046F6EA05F8597)
Complete name : Panorama.2021.01.11.The.Virus.vs.the.Vaccine.720p.WEBRip.mkv
Format : Matroska
Format version : Version 4
File size : 503 MiB
Duration : 28 min 27 s
Overall bit rate : 2 473 kb/s
Encoded date : UTC 2021-01-12 09:54:22
Writing application : mkvmerge v52.0.0 ('Secret For The Mad') 64-bit
Writing library : libebml v1.4.1 + libmatroska v1.6.2

Video
ID : 1
Format : AVC
Format/Info : Advanced Video Codec
Format profile : High@L4.1
Format settings : CABAC / 8 Ref Frames
Format settings, CABAC : Yes
Format settings, Reference frames : 8 frames
Codec ID : V_MPEG4/ISO/AVC
Duration : 28 min 27 s
Bit rate : 2 342 kb/s
Width : 1 280 pixels
Height : 720 pixels
Display aspect ratio : 16:9
Frame rate mode : Constant
Frame rate : 25.000 FPS
Color space : YUV
Chroma subsampling : 4:2:0
Bit depth : 8 bits
Scan type : Progressive
Bits/(Pixel*Frame) : 0.102
Stream size : 477 MiB (95%)
Writing library : x264 core 161 r3033 0d754ec
Encoding settings : cabac=1 / ref=8 / deblock=1:-3:-3 / analyse=0x3:0x133 / me=umh / subme=9 / psy=1 / psy_rd=1.00:0.00 / mixed_ref=1 / me_range=16 / chroma_me=1 / trellis=2 / 8x8dct=1 / cqm=0 / deadzone=21,11 / fast_pskip=1 / chroma_qp_offset=-2 / threads=12 / lookahead_threads=1 / sliced_threads=0 / nr=0 / decimate=1 / interlaced=0 / bluray_compat=0 / constrained_intra=0 / bframes=3 / b_pyramid=2 / b_adapt=2 / b_bias=0 / direct=3 / weightb=1 / open_gop=0 / weightp=2 / keyint=250 / keyint_min=25 / scenecut=40 / intra_refresh=0 / rc_lookahead=60 / rc=crf / mbtree=1 / crf=18.0 / qcomp=0.60 / qpmin=0 / qpmax=69 / qpstep=4 / ip_ratio=1.40 / aq=1:1.00
Language : English
Default : Yes
Forced : No

Audio
ID : 2
Format : AAC LC
Format/Info : Advanced Audio Codec Low Complexity
Codec ID : A_AAC-2
Duration : 28 min 26 s
Bit rate : 128 kb/s
Channel(s) : 2 channels
Channel layout : L R
Sampling rate : 48.0 kHz
Frame rate : 46.875 FPS (1024 SPF)
Compression mode : Lossy
Stream size : 26.0 MiB (5%)
Title : English
Language : English
Default : Yes
Forced : No

Text
ID : 3
Format : UTF-8
Codec ID : S_TEXT/UTF8
Codec ID/Info : UTF-8 Plain Text
Duration : 27 min 48 s
Bit rate : 220 b/s
Count of elements : 499
Stream size : 44.9 KiB (0%)
Title : English
Language : English
Default : No
Forced : No
Screenshots

BBC Panorama  - The Virus vs the Vaccine (2021)

BBC Panorama  - The Virus vs the Vaccine (2021)

BBC Panorama  - The Virus vs the Vaccine (2021)

Welcome to my blog - daily update!
BBC Panorama  - The Virus vs the Vaccine (2021)