Tags
Language
Tags

Papi Ain't No Snitch: The Rasheed Thurmond Story (2015)

Posted By: JohnSmith
1080p (FullHD) / WEB-DL IMDb
Papi Ain't No Snitch: The Rasheed Thurmond Story (2015)

Papi Ain't No Snitch: The Rasheed Thurmond Story (2015)
WEB-DL 1080p| MKV / AVC@11.9 Mb/s | 1920x1080 | 1h 26mn | 7.34 GB
English: AC3, 224 kb/s (2 ch) | Subtitles: English
Genre: Documentary

A documentary about a Brooklyn comedian Rasheed Thurmond, who passed away in 2007, left the comedy world in shock. Known for his appearance on Bad Boys of Comedy and Def Comedy Jam, Rasheed was on his way to becoming one of the next great comedy legend.




General
Unique ID : 203676222241282064053456548739258947295 (0x993A9D10C9BE4C09924F91A763E296DF)
Complete name : D:\Downloads\Papi.Aint.No.Snitch.The.Rasheed.Thurmond.Story.2015.1080p.Amazon.WEB-DL.DD+2.0.H.264-QOQ.mkv
Format : Matroska
Format version : Version 4 / Version 2
File size : 7.34 GiB
Duration : 1 h 26 min
Overall bit rate mode : Variable
Overall bit rate : 12.1 Mb/s
Encoded date : UTC 2018-01-15 05:37:46
Writing application : mkvmerge v13.0.0 ('The Juggler') 64bit
Writing library : libebml v1.3.4 + libmatroska v1.4.5

Video
ID : 1
Format : AVC
Format/Info : Advanced Video Codec
Format profile : High@L4
Format settings, CABAC : Yes
Format settings, ReFrames : 4 frames
Codec ID : V_MPEG4/ISO/AVC
Duration : 1 h 26 min
Bit rate mode : Variable
Bit rate : 11.9 Mb/s
Maximum bit rate : 15.0 Mb/s
Width : 1 920 pixels
Height : 1 080 pixels
Display aspect ratio : 16:9
Frame rate mode : Constant
Frame rate : 23.976 (24000/1001) FPS
Color space : YUV
Chroma subsampling : 4:2:0
Bit depth : 8 bits
Scan type : Progressive
Bits/(Pixel*Frame) : 0.239
Stream size : 7.20 GiB (98%)
Default : Yes
Forced : No
Color range : Limited
Color primaries : BT.709
Transfer characteristics : BT.709
Matrix coefficients : BT.709

Audio
ID : 2
Format : E-AC-3
Format/Info : Enhanced Audio Coding 3
Format settings, Endianness : Big
Codec ID : A_EAC3
Duration : 1 h 26 min
Bit rate mode : Constant
Bit rate : 224 kb/s
Channel(s) : 2 channels
Channel positions : Front: L R
Sampling rate : 48.0 kHz
Frame rate : 187.500 FPS (256 spf)
Compression mode : Lossy
Stream size : 139 MiB (2%)
Language : English
Service kind : Complete Main
Default : Yes
Forced : No

Text #1
ID : 3
Format : UTF-8
Codec ID : S_TEXT/UTF8
Codec ID/Info : UTF-8 Plain Text
Duration : 1 h 24 min
Bit rate : 107 b/s
Count of elements : 1887
Stream size : 66.4 KiB (0%)
Language : English
Default : No
Forced : No

Text #2
ID : 4
Format : UTF-8
Codec ID : S_TEXT/UTF8
Codec ID/Info : UTF-8 Plain Text
Duration : 1 h 24 min
Bit rate : 109 b/s
Count of elements : 1951
Stream size : 67.8 KiB (0%)
Title : SDH
Language : English
Default : No
Forced : No




Screenshots

Papi Ain't No Snitch: The Rasheed Thurmond Story (2015)

Papi Ain't No Snitch: The Rasheed Thurmond Story (2015)

Papi Ain't No Snitch: The Rasheed Thurmond Story (2015)