Tags
Language
Tags

Paranormal Island (2014)

Posted By: Without
Paranormal Island (2014)

Paranormal Island (2014)
DVDRip | AVI | 720×304 | XviD@1492 Kbps | English MP3@128 Kbps | 2 Channels | 01:18:25 | 910 MB
Genre: Horror

When 3 college kids take a summer job its a chance of a lifetime to bartend at a bar in the middle of a lake! The bar has been around for over a hundred years and is presumed by many locals to be haunted, after the owner killed himself many years before. Unfortunately they miss the last boat off the island and are stuck trying to find a way off. As darkness falls, they quickly realize things are very different after hours as they are hunted by the paranormal caretaker.



General
Complete name : Paranormal.Island.2014.DVDRip.XviD-EVO.avi
Format : AVI
Format/Info : Audio Video Interleave
Format profile : OpenDML
Format settings : rec
File size : 911 MiB
Duration : 1h 18mn
Overall bit rate : 1 624 Kbps
Writing application : AVI-Mux GUI 1.17.8.3, Feb 16 201019:42:50

Video
ID : 0
Format : MPEG-4 Visual
Format profile : Advanced Simple@L5
Format settings, BVOP : 2
Format settings, QPel : No
Format settings, GMC : No warppoints
Format settings, Matrix : Default (H.263)
Muxing mode : Packed bitstream
Codec ID : XVID
Codec ID/Hint : XviD
Duration : 1h 18mn
Bit rate : 1 492 Kbps
Width : 720 pixels
Height : 304 pixels
Display aspect ratio : 2.35:1
Frame rate : 25.000 fps
Color space : YUV
Chroma subsampling : 4:2:0
Bit depth : 8 bits
Scan type : Progressive
Compression mode : Lossy
Bits/(Pixel*Frame) : 0.273
Stream size : 837 MiB (92%)
Writing library : XviD 64

Audio
ID : 1
Format : MPEG Audio
Format version : Version 1
Format profile : Layer 3
Mode : Joint stereo
Codec ID : 55
Codec ID/Hint : MP3
Duration : 1h 18mn
Bit rate mode : Constant
Bit rate : 128 Kbps
Channel(s) : 2 channels
Sampling rate : 48.0 KHz
Compression mode : Lossy
Stream size : 71.8 MiB (8%)
Alignment : Aligned on interleaves
Interleave, duration : 559 ms (13.98 video frames)
Interleave, preload duration : 216 ms
Title : mp3
Writing library : LAME3.99r
Encoding settings : -m j -V 4 -q 2 -lowpass 17 -b 128



Screenshots

Paranormal Island (2014)

Paranormal Island (2014)

Paranormal Island (2014)


Come Visit My Blog (•‿•)