Paris est une fête - Un film en 18 vagues (2017)

Posted By: Rare-1
720p (HD) / WEBRip IMDb
Paris est une fête - Un film en 18 vagues (2017)

Paris est une fête - Un film en 18 vagues (2017)
WEBRip | MKV | 720 x 576 | AVC @ 2975 Kbps | 95 min | 2.15 Gb
Audio: French AAC 2.0 @ 256 Kbps | Subs: English (HardCoded)
Genre: Documentary | France

Un film poème en 18 vagues, comme autant de scènes pour décrire Paris et ses paysages urbains traversés par un "jeune mineur étranger isolé", les attentats, les roses blanches, l'état d'urgence, le bleu-blanc-rouge, l'océan atlantique et ses traversées, les volcans, la beat-box, la révolte, la colère, la violence d’Etat, un chant révolutionnaire, le silence, et la joie…, rien que la joie.

IMDB 6.9 /11 Votes

Director: Sylvain George
Writer: Sylvain George
Actors: Valérie Dréville
Rated: N/A
Runtime: 95 min

Sylvain George crosses Paris in 2015 and 2016 with an “unaccompanied foreign minor”, as the official term has it. This splendid whirlwind in black-and-white mixes the details of iconic monuments – an equestrian statue, the obelisk or the big wheel – with life in the streets. “Aubervilliers: our facilities improve your quality of life” proclaims a municipal billboard in front of a group of homeless foreigners. This urban symphony in the vein of Dziga Vertov and rendered feverish by the prevailing state of emergency refrains from choosing between the figuration and transfiguration of reality. The fragments of things seen are interrupted, for example, to give voice to the laconic and harrowing story of a young Guinean’s journey across the Mediterranean. The film’s “18-wave” sequence suggests correspondences between his story and the memory of two boys who died electrocuted by a transformer in Clichy in 2005. Events, people and discourse are juxtaposed, collide and sometimes intertwine, bringing to light causal relations. The film spirals in on the Place de la République, which is both a mausoleum and a battle field in the violent images of riot police trampling on flowers left to commemorate the victims of the 2015 terror attacks. Filmed at various demonstrations, the slogans and gestures of revolt are never reduced to an unambiguous content. The activism of Vigo in À propos de Nice connects with the red, white and blue titles of the films Godard made in the seventies, but these cinephile flashes never overshadow reality. From wave to wave, the young African reappears, story-telling, smoking, slamming, bearing witness to the fact that, as the name of a café we see suggests, Paris raises a toast “to renaissance”. (Charlotte Garson)

Paris est une fête - Un film en 18 vagues (2017)


Paris est une fête - Un film en 18 vagues (2017)



General
Unique ID : 14754383489911616819255092555559668990 (0xB1997450DA35E92717DE7F4F3E70CFE)
Complete name : E:\HDNLUF079\New folder\PARIS EST UNE FETE.mkv
Format : Matroska
Format version : Version 4 / Version 2
File size : 2.15 GiB
Duration : 1 h 35 min
Overall bit rate : 3 234 kb/s
Encoded date : UTC 2017-06-27 09:29:52
Writing application : mkvmerge v13.0.0 ('The Juggler') 64bit
Writing library : libebml v1.3.4 + libmatroska v1.4.5

Video
ID : 1
Format : AVC
Format/Info : Advanced Video Codec
Format profile : Baseline@L3
Format settings, CABAC : No
Format settings, RefFrames : 2 frames
Codec ID : V_MPEG4/ISO/AVC
Duration : 1 h 35 min
Bit rate : 2 975 kb/s
Width : 720 pixels
Height : 576 pixels
Display aspect ratio : 5:4
Frame rate mode : Constant
Frame rate : 25.000 FPS
Standard : PAL
Color space : YUV
Chroma subsampling : 4:2:0
Bit depth : 8 bits
Scan type : Progressive
Bits/(Pixel*Frame) : 0.287
Stream size : 1.98 GiB (92%)
Language : French
Default : Yes
Forced : No
Color range : Limited
Color primaries : BT.601 NTSC
Transfer characteristics : BT.709
Matrix coefficients : BT.601

Audio
ID : 2
Format : AAC
Format/Info : Advanced Audio Codec
Format profile : LC
Codec ID : A_AAC
Duration : 1 h 35 min
Bit rate : 256 kb/s
Channel(s) : 2 channels
Channel positions : Front: L R
Sampling rate : 48.0 kHz
Frame rate : 46.875 FPS (1024 SPF)
Compression mode : Lossy
Stream size : 174 MiB (8%)
Language : French
Default : Yes
Forced : No


Many Thanks to Original uploader.


For More Rare Movies Check out my blog!


Download Links :

No Mirrors Please