Tags
Language
Tags

Paul Weller: May Love Travel With You (2018)

Posted By: notbanned
1080p (FullHD) / HDTV
Paul Weller: May Love Travel With You (2018)

Paul Weller: May Love Travel With You (2018)
HDTV | 1918x1014 | .MKV/AVC @ 1911 Kbps | 52 min 38 s | 882 MiB
Audio: English AC3 384 kbps, 2 channels | Subs: English
Genre: Documentary

The singer-songwriter performs at London's Royal Festival Hall accompanied by an orchestra, playing a career-spanning set from Jam classics to songs from latest album True Meanings.

General
Complete name : Paul.Weller.May.Love.Travel.With.You.2018.1080p.mkv
Format : Matroska
Format version : Version 4 / Version 2
File size : 882 MiB
Duration : 52 min 38 s
Overall bit rate : 2 342 kb/s

Video
ID : 1
Format : AVC
Format/Info : Advanced Video Codec
Format profile : High@L4.2
Format settings, CABAC : Yes
Format settings, ReFrames : 4 frames
Codec ID : V_MPEG4/ISO/AVC
Duration : 52 min 38 s
Bit rate : 1 911 kb/s
Width : 1 918 pixels
Height : 1 014 pixels
Display aspect ratio : 1.892
Frame rate mode : Constant
Frame rate : 25.000 FPS
Color space : YUV
Chroma subsampling : 4:2:0
Bit depth : 8 bits
Scan type : Progressive
Bits/(Pixel*Frame) : 0.039
Stream size : 720 MiB (82%)
Writing library : x264 core 158 r2984 3759fcb
Encoding settings : cabac=1 / ref=4 / deblock=1:0:0 / analyse=0x3:0x113 / me=hex / subme=8 / psy=1 / psy_rd=1.00:0.00 / mixed_ref=1 / me_range=16 / chroma_me=1 / trellis=2 / 8x8dct=1 / cqm=0 / deadzone=21,11 / fast_pskip=1 / chroma_qp_offset=-2 / threads=24 / lookahead_threads=4 / sliced_threads=0 / nr=0 / decimate=1 / interlaced=0 / bluray_compat=0 / constrained_intra=0 / bframes=3 / b_pyramid=2 / b_adapt=1 / b_bias=0 / direct=3 / weightb=1 / open_gop=0 / weightp=2 / keyint=250 / keyint_min=25 / scenecut=40 / intra_refresh=0 / rc_lookahead=50 / rc=crf / mbtree=1 / crf=23.0 / qcomp=0.60 / qpmin=0 / qpmax=69 / qpstep=4 / ip_ratio=1.40 / aq=1:1.00
Language : English
Default : Yes
Forced : No
Color range : Limited
Matrix coefficients : BT.709

Audio
ID : 2
Format : AC-3
Format/Info : Audio Coding 3
Format settings, Endianness : Big
Codec ID : A_AC3
Duration : 52 min 38 s
Bit rate mode : Constant
Bit rate : 384 kb/s
Channel(s) : 2 channels
Channel positions : Front: L R
Sampling rate : 48.0 kHz
Frame rate : 31.250 FPS (1536 spf)
Bit depth : 16 bits
Compression mode : Lossy
Stream size : 145 MiB (16%)
Language : English
Service kind : Complete Main
Default : Yes
Forced : No

Text
ID : 3
Format : UTF-8
Codec ID : S_TEXT/UTF8
Codec ID/Info : UTF-8 Plain Text
Language : English
Default : No
Forced : No

Menu
00:00:00.000 : en:PART_01
00:25:27.110 : en:PART_02


Screenshots:

Paul Weller: May Love Travel With You (2018)

Paul Weller: May Love Travel With You (2018)

Paul Weller: May Love Travel With You (2018)