Tags
Language
Tags

Piccadilly (1929)

Posted By: Tavaz
720p (HD) / BDRip IMDb
Piccadilly (1929)

Piccadilly (1929)
BDRip | MKV | 982x720 | English | H264 @ 6021 kbps | FLAC @ 1342 kbps | 1 h 54 min | 5.88 GiB
Genre: Drama, Crime

A young Chinese woman, working in the kitchen at a London dance club, is given the chance to become the club's main act.

983503d48688e13a71d5c865f8cccaaf.mkv (5.9 GB)



General
Unique ID : 321532389617228001971678987740886369893 (0xF1E4E2BEE6B16A0BA78FA82C514C8665)
Complete name : ./983503d48688e13a71d5c865f8cccaaf.mkv
Format : Matroska
Format version : Version 4 / Version 2
File size : 5.88 GiB
Duration : 1 h 54 min
Overall bit rate mode : Variable
Overall bit rate : 7 367 kb/s
Encoded date : UTC 2021-06-28 20:34:29
Writing application : mkvmerge v57.0.0 ('Till The End') 64-bit
Writing library : libebml v1.4.2 + libmatroska v1.6.4

Video
ID : 1
Format : AVC
Format/Info : Advanced Video Codec
Format profile : High@L4.1
Format settings : CABAC / 11 Ref Frames
Format settings, CABAC : Yes
Format settings, RefFrames : 11 frames
Codec ID : V_MPEG4/ISO/AVC
Duration : 1 h 54 min
Bit rate : 6 022 kb/s
Width : 982 pixels
Height : 720 pixels
Display aspect ratio : 4:3
Frame rate mode : Constant
Frame rate : 24.000 FPS
Color space : YUV
Chroma subsampling : 4:2:0
Bit depth : 8 bits
Scan type : Progressive
Bits/(Pixel*Frame) : 0.355
Stream size : 4.81 GiB (82%)
Writing library : x264 core 164 r3065 ae03d92
Encoding settings : cabac=1 / ref=11 / deblock=1:-3:-3 / analyse=0x3:0x133 / me=umh / subme=10 / psy=1 / psy_rd=1.50:0.15 / mixed_ref=1 / me_range=24 / chroma_me=1 / trellis=2 / 8x8dct=1 / cqm=0 / deadzone=21,11 / fast_pskip=0 / chroma_qp_offset=-3 / threads=22 / lookahead_threads=3 / sliced_threads=0 / nr=0 / decimate=0 / interlaced=0 / bluray_compat=0 / constrained_intra=0 / bframes=8 / b_pyramid=2 / b_adapt=2 / b_bias=0 / direct=3 / weightb=1 / open_gop=0 / weightp=2 / keyint=250 / keyint_min=24 / scenecut=40 / intra_refresh=0 / rc_lookahead=60 / rc=crf / mbtree=1 / crf=18.0 / qcomp=0.60 / qpmin=0 / qpmax=69 / qpstep=4 / ip_ratio=1.40 / aq=3:0.50
Default : Yes
Forced : No
Color range : Limited
Matrix coefficients : BT.709

Audio
ID : 2
Format : FLAC
Format/Info : Free Lossless Audio Codec
Codec ID : A_FLAC
Duration : 1 h 54 min
Bit rate mode : Variable
Bit rate : 1 343 kb/s
Channel(s) : 2 channels
Channel positions : Front: L R
Sampling rate : 48.0 kHz
Frame rate : 11.719 FPS (4096 SPF)
Bit depth : 24 bits
Stream size : 1.07 GiB (18%)
Writing library : libFLAC 1.3.3 (UTC 2019-08-04)
Language : English
Default : Yes
Forced : No

Menu
00:00:00.000 : Chapter 01
00:19:05.083 : Chapter 02
00:23:37.625 : Chapter 03
00:36:13.917 : Chapter 04
00:45:55.083 : Chapter 05
01:01:06.292 : Chapter 06
01:12:31.000 : Chapter 07
01:25:49.500 : Chapter 08
01:37:06.083 : Chapter 09
01:49:09.250 : Chapter 10





Piccadilly (1929)


Piccadilly (1929)


Piccadilly (1929)


Piccadilly (1929)


Piccadilly (1929)