Pieds nus sur les limaces (2010)

Posted By: FenixN
Pieds nus sur les limaces (2010)

Pieds nus sur les limaces (2010)
DVDRip | AVI / XviD, 1408 kb/s | 640x352 | 01:44:51 | French: AC3, 448 kb/s (6 ch) | 1.37 GB
Genre: Drama | France

Lily, drôle, exubérante et insaisissable, vit dans un univers fantaisiste en harmonie avec la nature, à la campagne, chez sa mère. Sa grande soeur, Clara, mariée et citadine, a quitté la maison familiale. A la mort de leur mère, Clara doit bouleverser ses priorités pour s?occuper de Lily. Les deux s?urs vont alors se révéler l'une à l'autre?Clara sous l?influence de Lily va remettre sa vie en question et goûter a une certaine liberté…

imdb: 6,5/10 (161 votes)

Format : AVI
Format/Info : Audio Video Interleave
File size : 1.37 GiB
Duration : 1h 44mn
Overall bit rate : 1 867 Kbps
Movie name : PIEDS_LIMACES_VIAZAC.Title1.DVDRip
Writing application : Lavf52.33.0
Original source form/Name : PIEDS_LIMACES_VIAZAC

Video
ID : 0
Format : MPEG-4 Visual
Format profile : Simple@L3
Format settings, BVOP : No
Format settings, QPel : No
Format settings, GMC : No warppoints
Format settings, Matrix : Default (H.263)
Codec ID : XVID
Codec ID/Hint : XviD
Duration : 1h 44mn
Bit rate : 1 408 Kbps
Width : 640 pixels
Height : 352 pixels
Display aspect ratio : 16:9
Frame rate : 25.000 fps
Color space : YUV
Chroma subsampling : 4:2:0
Bit depth : 8 bits
Scan type : Progressive
Compression mode : Lossy
Bits/(Pixel*Frame) : 0.250
Stream size : 1.03 GiB (75%)
Writing library : XviD 1.2.1 (UTC 2008-12-04)

Audio
ID : 1
Format : AC-3
Format/Info : Audio Coding 3
Mode extension : CM (complete main)
Codec ID : 2000
Duration : 1h 44mn
Bit rate mode : Constant
Bit rate : 448 Kbps
Channel(s) : 6 channels
Channel positions : Front: L C R, Side: L R, LFE
Sampling rate : 48.0 KHz
Bit depth : 16 bits
Compression mode : Lossy
Stream size : 336 MiB (24%)
Alignment : Aligned on interleaves
Interleave, duration : 32 ms (0.80 video frame)


screenshot
Pieds nus sur les limaces (2010)

Pieds nus sur les limaces (2010)

Pieds nus sur les limaces (2010)

Pieds nus sur les limaces (2010)

Pieds nus sur les limaces (2010)


Welcome to the best movies collection (English, German, French language), best software, best eLearning video and many-many more: LINK
Do not forget to check my blog! Updated regularly!