Tags
Language
Tags

Pirates of the Caribbean: Salazar's Revenge (2017)

Posted By: Tavaz
1080p (FullHD) / BDRip IMDb
Pirates of the Caribbean: Salazar's Revenge (2017)

Pirates of the Caribbean: Salazar's Revenge (2017)
BDRip | MKV | 1920x800 | H265 @ 3338 kbps | AAC @ 313 kbps | 2 h 9 min | 3.30 GiB
Subtitles: English
Genre: Action, Adventure, Comedy, Fantasy

Kaptein Jack Sparrow søker etter treforken av Poseidon mens han forfølges av en udød sjøkaptein og hans mannskap.

4c703faad0ec1edbc69eba361ee2c002.mkv (3.3 GB)



General
Complete name : ./4c703faad0ec1edbc69eba361ee2c002.mkv
Format : Matroska
Format version : Version 4 / Version 2
File size : 3.30 GiB
Duration : 2 h 9 min
Overall bit rate : 3 655 kb/s
Encoded date : UTC 2017-09-13 14:38:29
Writing application : mkvmerge v15.0.0 ('Duel with the Devil') 64-bit
Writing library : libebml v1.3.5 + libmatroska v1.4.5

Video
ID : 1
Format : HEVC
Format/Info : High Efficiency Video Coding
Format profile : Main 10@L4@Main
Codec ID : V_MPEGH/ISO/HEVC
Duration : 2 h 9 min
Bit rate : 3 339 kb/s
Width : 1 920 pixels
Height : 800 pixels
Display aspect ratio : 2.40:1
Frame rate mode : Constant
Frame rate : 23.976 (24000/1001) FPS
Color space : YUV
Chroma subsampling : 4:2:0
Bit depth : 10 bits
Bits/(Pixel*Frame) : 0.091
Stream size : 3.01 GiB (91%)
Default : Yes
Forced : No

Audio
ID : 2
Format : AAC
Format/Info : Advanced Audio Codec
Format profile : HE-AAC / LC
Format settings : Explicit
Codec ID : A_AAC-2
Duration : 2 h 9 min
Bit rate : 313 kb/s
Channel(s) : 7 channels
Channel(s)_Original : 8 channels
Channel positions : Front: L C R, Side: L R, Back: L R, LFE
Sampling rate : 48.0 kHz / 24.0 kHz
Frame rate : 23.438 FPS (1024 SPF)
Compression mode : Lossy
Delay relative to video : 31 ms
Stream size : 289 MiB (9%)
Default : Yes
Forced : No

Text #1
ID : 3
Format : UTF-8
Codec ID : S_TEXT/UTF8
Codec ID/Info : UTF-8 Plain Text
Duration : 1 h 55 min
Bit rate : 45 b/s
Count of elements : 1436
Stream size : 38.3 KiB (0%)
Title : ENG
Language : English
Default : Yes
Forced : No

Text #2
ID : 4
Format : UTF-8
Codec ID : S_TEXT/UTF8
Codec ID/Info : UTF-8 Plain Text
Duration : 2 h 7 min
Bit rate : 48 b/s
Count of elements : 1773
Stream size : 45.8 KiB (0%)
Title : ENG SDH
Language : English
Default : No
Forced : No

Menu
00:00:00.000 : :Chapter 1
00:05:49.600 : :Chapter 2
00:08:34.400 : :Chapter 3
00:13:41.000 : :Chapter 4
00:16:29.200 : :Chapter 5
00:22:34.000 : :Chapter 6
00:25:19.400 : :Chapter 7
00:28:06.400 : :Chapter 8
00:31:41.800 : :Chapter 9
00:33:45.000 : :Chapter 10
00:37:02.200 : :Chapter 11
00:42:27.800 : :Chapter 12
00:49:09.200 : :Chapter 13
00:54:00.400 : :Chapter 14
00:57:19.600 : :Chapter 15
01:00:39.000 : :Chapter 16
01:08:30.200 : :Chapter 17
01:11:57.200 : :Chapter 18
01:16:51.000 : :Chapter 19
01:19:27.600 : :Chapter 20
01:25:05.000 : :Chapter 21
01:27:42.200 : :Chapter 22
01:31:43.800 : :Chapter 23
01:38:23.000 : :Chapter 24
01:42:36.800 : :Chapter 25
01:47:23.800 : :Chapter 26
01:52:58.800 : :Chapter 27
01:59:10.200 : :Chapter 28





Pirates of the Caribbean: Salazar's Revenge (2017)


Pirates of the Caribbean: Salazar's Revenge (2017)


Pirates of the Caribbean: Salazar's Revenge (2017)


Pirates of the Caribbean: Salazar's Revenge (2017)


Pirates of the Caribbean: Salazar's Revenge (2017)