Pirates of the Caribbean: Dead Men Tell No Tales (2017)

Posted By: Without
Pirates of the Caribbean: Dead Men Tell No Tales (2017)

Pirates of the Caribbean: Dead Men Tell No Tales (2017)
BDRip | MKV | 720x300 | AVC@1294 Kbps | English AAC@127 Kbps
Subs: English | 2 channels | 2 h 9 min | 1.28 GB
BRRip | AVI | 720x304 | XviD@1287 kb/s | English AC3@384 kb/s | 6 channels | 2 h 9 min | 1.52 GB
BRRip 720p | MKV | 1280x536 | AVC@2900 kb/s | English AC3@384 kb/s
6 channels | 2 h 9 min | 2.95 GB
BDRip 720p | MKV | 1280x536 | AVC@5760 kb/s | English DTS@1509 kb/s
Subs: English | 6 channels | 2 h 9 min | 6.56 GB
BDRip 1080p | MKV | 1920x800 | AVC@10.6 Mb/s | English DTS@1509 kb/s
Subs: English | 6 channels | 2 h 9 min | 10.9 GB
Genre: Action, Adventure, Fantasy

Captain Jack Sparrow searches for the trident of Poseidon while being pursued by an undead sea captain and his crew.

IMDB - 5 nominations


General
Pirates.of.the.Caribbean.Dead.Men.Tell.No.Tales.2017.BDRip.X264-AMIABLE\Pirates.of.the.Caribbean.Dead.Men.Tell.No.Tales.2017.BDRip.X264-AMIABLE.mkv
Format : Matroska
Format version : Version 4 / Version 2
File size : 1.28 GiB
Duration : 2 h 9 min
Overall bit rate : 1 424 kb/s
Encoded date : UTC 2010-02-22 21:41:29
Writing application : no_variable_data
Writing library : no_variable_data

Video
ID : 1
Format : AVC
Format/Info : Advanced Video Codec
Format profile : High@L3.1
Format settings, CABAC : Yes
Format settings, ReFrames : 5 frames
Codec ID : V_MPEG4/ISO/AVC
Duration : 2 h 9 min
Width : 720 pixels
Height : 300 pixels
Display aspect ratio : 2.40:1
Frame rate mode : Constant
Frame rate : 23.976 (24000/1001) FPS
Color space : YUV
Chroma subsampling : 4:2:0
Bit depth : 8 bits
Scan type : Progressive
Writing library : x264 core 152 r2851 ba24899
Encoding settings : cabac=1 / ref=5 / deblock=1:-2:-2 / analyse=0x3:0x113 / me=umh / subme=8 / psy=1 / psy_rd=1.00:0.00 / mixed_ref=1 / me_range=16 / chroma_me=1 / trellis=2 / 8x8dct=1 / cqm=0 / deadzone=21,11 / fast_pskip=1 / chroma_qp_offset=-2 / threads=9 / lookahead_threads=1 / sliced_threads=0 / nr=0 / decimate=1 / interlaced=0 / bluray_compat=0 / constrained_intra=0 / bframes=3 / b_pyramid=2 / b_adapt=1 / b_bias=0 / direct=3 / weightb=1 / open_gop=0 / weightp=2 / keyint=240 / keyint_min=24 / scenecut=40 / intra_refresh=0 / rc_lookahead=50 / rc=crf / mbtree=1 / crf=19.0 / qcomp=0.60 / qpmin=0 / qpmax=69 / qpstep=4 / ip_ratio=1.40 / aq=1:0.70
Default : Yes
Forced : No
Color range : Limited
Matrix coefficients : BT.709
Statistics Tags Issue : no_variable_data 1970-01-01 00:00:00 / no_variable_data 2010-02-22 21:41:29
FromStats_BitRate : 1294506
FromStats_Duration : 02:09:07.240000000
FromStats_FrameCount : 185748
FromStats_StreamSize : 1253606446

Audio
ID : 2
Format : AAC
Format/Info : Advanced Audio Codec
Format profile : LC
Codec ID : A_AAC
Duration : 2 h 9 min
Channel(s) : 2 channels
Channel positions : Front: L R
Sampling rate : 48.0 kHz
Frame rate : 46.875 FPS (1024 spf)
Compression mode : Lossy
Delay relative to video : 9 ms
Language : English
Default : Yes
Forced : No
Statistics Tags Issue : no_variable_data 1970-01-01 00:00:00 / no_variable_data 2010-02-22 21:41:29
FromStats_BitRate : 127222
FromStats_Duration : 02:09:07.243000000
FromStats_FrameCount : 363152
FromStats_StreamSize : 123203005

Text #1
ID : 3
Format : UTF-8
Codec ID : S_TEXT/UTF8
Codec ID/Info : UTF-8 Plain Text
Language : English
Default : No
Forced : No
Statistics Tags Issue : no_variable_data 1970-01-01 00:00:00 / no_variable_data 2010-02-22 21:41:29
FromStats_BitRate : 45
FromStats_Duration : 01:55:13.364000000
FromStats_FrameCount : 1435
FromStats_StreamSize : 39151

Text #2
ID : 4
Format : UTF-8
Codec ID : S_TEXT/UTF8
Codec ID/Info : UTF-8 Plain Text
Title : SDH
Language : English
Default : No
Forced : No
Statistics Tags Issue : no_variable_data 1970-01-01 00:00:00 / no_variable_data 2010-02-22 21:41:29
FromStats_BitRate : 48
FromStats_Duration : 02:07:54.167000000
FromStats_FrameCount : 1772
FromStats_StreamSize : 46849

Menu
00:00:00.000 : en:00:00:00.000
00:05:49.516 : en:00:05:49.516
00:08:34.222 : en:00:08:34.222
00:13:40.820 : en:00:13:40.820
00:16:29.155 : en:00:16:29.155
00:22:33.852 : en:00:22:33.852
00:25:19.268 : en:00:25:19.268
00:28:06.101 : en:00:28:06.101
00:31:41.775 : en:00:31:41.775
00:33:44.814 : en:00:33:44.814
00:37:02.053 : en:00:37:02.053
00:42:27.712 : en:00:42:27.712
00:49:09.071 : en:00:49:09.071
00:54:00.279 : en:00:54:00.279
00:57:19.394 : en:00:57:19.394
01:00:38.718 : en:01:00:38.718
01:08:29.939 : en:01:08:29.939
01:11:57.021 : en:01:11:57.021
01:16:50.940 : en:01:16:50.940
01:19:27.471 : en:01:19:27.471
01:25:04.808 : en:01:25:04.808
01:27:42.174 : en:01:27:42.174
01:31:43.790 : en:01:31:43.790
01:38:22.814 : en:01:38:22.814
01:42:36.776 : en:01:42:36.776
01:47:23.562 : en:01:47:23.562
01:52:58.689 : en:01:52:58.689
01:59:09.934 : en:01:59:09.934

General
Pirates.of.the.Caribbean.Dead.Men.Tell.No.Tales.2017.BRRip.XviD.AC3-EVO\Pirates.of.the.Caribbean.Dead.Men.Tell.No.Tales.2017.BRRip.XviD.AC3-EVO.avi
Format : AVI
Format/Info : Audio Video Interleave
File size : 1.52 GiB
Duration : 2 h 9 min
Overall bit rate : 1 680 kb/s
Writing library : VirtualDub build 32593/release

Video
ID : 0
Format : MPEG-4 Visual
Format profile : Advanced Simple@L5
Format settings, BVOP : 2
Format settings, QPel : No
Format settings, GMC : No warppoints
Format settings, Matrix : Default (H.263)
Muxing mode : Packed bitstream
Codec ID : XVID
Codec ID/Hint : XviD
Duration : 2 h 9 min
Bit rate : 1 287 kb/s
Width : 720 pixels
Height : 304 pixels
Display aspect ratio : 2.35:1
Frame rate : 23.976 (24000/1001) FPS
Color space : YUV
Chroma subsampling : 4:2:0
Bit depth : 8 bits
Scan type : Progressive
Compression mode : Lossy
Bits/(Pixel*Frame) : 0.245
Stream size : 1.16 GiB (77%)
Writing library : XviD 66

Audio
ID : 1
Format : AC-3
Format/Info : Audio Coding 3
Mode extension : CM (complete main)
Format settings, Endianness : Big
Codec ID : 2000
Duration : 2 h 9 min
Bit rate mode : Constant
Bit rate : 384 kb/s
Channel(s) : 6 channels
Channel positions : Front: L C R, Side: L R, LFE
Sampling rate : 48.0 kHz
Frame rate : 31.250 FPS (1536 spf)
Bit depth : 16 bits
Compression mode : Lossy
Stream size : 355 MiB (23%)
Alignment : Aligned on interleaves
Interleave, duration : 42 ms (1.00 video frame)
Interleave, preload duration : 512 ms

General
Pirates.of.the.Caribbean.Dead.Men.Tell.No.Tales.2017.720p.BRRip.X264.AC3-EVO\Pirates.of.the.Caribbean.Dead.Men.Tell.No.Tales.2017.720p.BRRip.X264.AC3-EVO.mkv
Format : Matroska
Format version : Version 4 / Version 2
File size : 2.95 GiB
Duration : 2 h 9 min
Overall bit rate : 3 268 kb/s
Movie name : EVO
Encoded date : UTC 2017-09-11 11:24:45
Writing application : mkvmerge v6.7.0 ('Back to the Ground') 64bit built on Jan 8 2014 15:10:52
Writing library : libebml v1.3.0 + libmatroska v1.4.1

Video
ID : 1
Format : AVC
Format/Info : Advanced Video Codec
Format profile : High@L4.1
Format settings, CABAC : Yes
Format settings, ReFrames : 4 frames
Codec ID : V_MPEG4/ISO/AVC
Duration : 2 h 9 min
Bit rate : 2 900 kb/s
Width : 1 280 pixels
Height : 536 pixels
Display aspect ratio : 2.40:1
Frame rate mode : Constant
Frame rate : 23.976 (24000/1001) FPS
Color space : YUV
Chroma subsampling : 4:2:0
Bit depth : 8 bits
Scan type : Progressive
Bits/(Pixel*Frame) : 0.176
Stream size : 2.54 GiB (86%)
Writing library : x264 core 142 r2479 dd79a61
Encoding settings : cabac=1 / ref=1 / deblock=1:0:0 / analyse=0x3:0x113 / me=hex / subme=2 / psy=1 / psy_rd=1.00:0.00 / mixed_ref=0 / me_range=16 / chroma_me=1 / trellis=0 / 8x8dct=1 / cqm=0 / deadzone=21,11 / fast_pskip=1 / chroma_qp_offset=0 / threads=12 / lookahead_threads=4 / sliced_threads=0 / nr=0 / decimate=1 / interlaced=0 / bluray_compat=0 / constrained_intra=0 / bframes=3 / b_pyramid=2 / b_adapt=1 / b_bias=0 / direct=1 / weightb=1 / open_gop=0 / weightp=1 / keyint=240 / keyint_min=24 / scenecut=40 / intra_refresh=0 / rc_lookahead=10 / rc=abr / mbtree=1 / bitrate=2900 / ratetol=1.0 / qcomp=0.60 / qpmin=0 / qpmax=69 / qpstep=4 / vbv_maxrate=62500 / vbv_bufsize=78125 / nal_hrd=none / filler=0 / ip_ratio=1.40 / aq=1:1.00
Default : Yes
Forced : No
Color range : Limited
Color primaries : BT.709
Transfer characteristics : BT.709
Matrix coefficients : BT.709

Audio
ID : 2
Format : AC-3
Format/Info : Audio Coding 3
Mode extension : CM (complete main)
Format settings, Endianness : Big
Codec ID : A_AC3
Duration : 2 h 9 min
Bit rate mode : Constant
Bit rate : 384 kb/s
Channel(s) : 6 channels
Channel positions : Front: L C R, Side: L R, LFE
Sampling rate : 48.0 kHz
Frame rate : 31.250 FPS (1536 spf)
Bit depth : 16 bits
Compression mode : Lossy
Delay relative to video : -5 ms
Stream size : 355 MiB (12%)
Title : Surround
Language : English
Default : Yes
Forced : No

Menu
00:00:00.000 : :00:00:00.000
00:05:49.641 : :00:05:49.516
00:08:34.305 : :00:08:34.222
00:13:40.986 : :00:13:40.820
00:16:29.280 : :00:16:29.155
00:22:33.977 : :00:22:33.852
00:25:19.392 : :00:25:19.268
00:28:06.309 : :00:28:06.101
00:31:41.900 : :00:31:41.775
00:33:44.897 : :00:33:44.814
00:37:02.136 : :00:37:02.053
00:42:27.837 : :00:42:27.712
00:49:09.154 : :00:49:09.071
00:54:00.403 : :00:54:00.279
00:57:19.477 : :00:57:19.394
01:00:38.801 : :01:00:38.718
01:08:30.022 : :01:08:29.939
01:11:57.104 : :01:11:57.021
01:16:51.064 : :01:16:50.940
01:19:27.554 : :01:19:27.471
01:25:04.891 : :01:25:04.808
01:27:42.298 : :01:27:42.174
01:31:43.998 : :01:31:43.790
01:38:22.938 : :01:38:22.814
01:42:36.900 : :01:42:36.776
01:47:23.770 : :01:47:23.562
01:52:58.813 : :01:52:58.689
01:59:10.184 : :01:59:09.934

General
Pirates.of.the.Caribbean.Dead.Men.Tell.No.Tales.2017.720p.BluRay.X264-AMIABLE\Pirates.of.the.Caribbean.Dead.Men.Tell.No.Tales.2017.720p.BluRay.X264-AMIABLE.mkv
Format : Matroska
Format version : Version 4 / Version 2
File size : 6.56 GiB
Duration : 2 h 9 min
Overall bit rate : 7 271 kb/s
Encoded date : UTC 2010-02-22 21:41:29
Writing application : no_variable_data
Writing library : no_variable_data

Video
ID : 1
Format : AVC
Format/Info : Advanced Video Codec
Format profile : High@L4.1
Format settings, CABAC : Yes
Format settings, ReFrames : 5 frames
Codec ID : V_MPEG4/ISO/AVC
Duration : 2 h 9 min
Bit rate : 5 760 kb/s
Width : 1 280 pixels
Height : 536 pixels
Display aspect ratio : 2.40:1
Frame rate mode : Constant
Frame rate : 23.976 (24000/1001) FPS
Color space : YUV
Chroma subsampling : 4:2:0
Bit depth : 8 bits
Scan type : Progressive
Bits/(Pixel*Frame) : 0.350
Stream size : 5.07 GiB (77%)
Writing library : x264 core 152 r2851 ba24899
Encoding settings : cabac=1 / ref=5 / deblock=1:-3:-3 / analyse=0x3:0x113 / me=umh / subme=8 / psy=1 / psy_rd=1.00:0.00 / mixed_ref=1 / me_range=24 / chroma_me=1 / trellis=1 / 8x8dct=1 / cqm=0 / deadzone=21,11 / fast_pskip=1 / chroma_qp_offset=-2 / threads=17 / lookahead_threads=2 / sliced_threads=0 / nr=0 / decimate=1 / interlaced=0 / bluray_compat=0 / constrained_intra=0 / bframes=3 / b_pyramid=2 / b_adapt=2 / b_bias=0 / direct=3 / weightb=1 / open_gop=0 / weightp=2 / keyint=240 / keyint_min=24 / scenecut=40 / intra_refresh=0 / rc_lookahead=50 / rc=2pass / mbtree=1 / bitrate=5760 / ratetol=1.0 / qcomp=0.60 / qpmin=0 / qpmax=69 / qpstep=4 / cplxblur=20.0 / qblur=0.5 / ip_ratio=1.40 / aq=3:0.80
Default : Yes
Forced : No
Statistics Tags Issue : no_variable_data 1970-01-01 00:00:00 / no_variable_data 2010-02-22 21:41:29
FromStats_BitRate : 5759793
FromStats_Duration : 02:09:07.240000000
FromStats_FrameCount : 185748
FromStats_StreamSize : 5577812442

Audio
ID : 2
Format : DTS
Format/Info : Digital Theater Systems
Mode : 16
Format settings, Endianness : Big
Codec ID : A_DTS
Duration : 2 h 9 min
Bit rate mode : Constant
Bit rate : 1 509 kb/s
Channel(s) : 6 channels
Channel positions : Front: L C R, Side: L R, LFE
Sampling rate : 48.0 kHz
Frame rate : 93.750 FPS (512 spf)
Bit depth : 24 bits
Compression mode : Lossy
Stream size : 1.36 GiB (21%)
Language : English
Default : Yes
Forced : No
Statistics Tags Issue : no_variable_data 1970-01-01 00:00:00 / no_variable_data 2010-02-22 21:41:29
FromStats_BitRate : 1508999
FromStats_Duration : 02:09:07.243000000
FromStats_FrameCount : 726304
FromStats_StreamSize : 1461323648

Text #1
ID : 3
Format : UTF-8
Codec ID : S_TEXT/UTF8
Codec ID/Info : UTF-8 Plain Text
Language : English
Default : No
Forced : No
Statistics Tags Issue : no_variable_data 1970-01-01 00:00:00 / no_variable_data 2010-02-22 21:41:29
FromStats_BitRate : 45
FromStats_Duration : 01:55:13.364000000
FromStats_FrameCount : 1435
FromStats_StreamSize : 39151

Text #2
ID : 4
Format : UTF-8
Codec ID : S_TEXT/UTF8
Codec ID/Info : UTF-8 Plain Text
Title : SDH
Language : English
Default : No
Forced : No
Statistics Tags Issue : no_variable_data 1970-01-01 00:00:00 / no_variable_data 2010-02-22 21:41:29
FromStats_BitRate : 48
FromStats_Duration : 02:07:54.167000000
FromStats_FrameCount : 1772
FromStats_StreamSize : 46849

Menu
00:00:00.000 : en:00:00:00.000
00:05:49.516 : en:00:05:49.516
00:08:34.222 : en:00:08:34.222
00:13:40.820 : en:00:13:40.820
00:16:29.155 : en:00:16:29.155
00:22:33.852 : en:00:22:33.852
00:25:19.268 : en:00:25:19.268
00:28:06.101 : en:00:28:06.101
00:31:41.775 : en:00:31:41.775
00:33:44.814 : en:00:33:44.814
00:37:02.053 : en:00:37:02.053
00:42:27.712 : en:00:42:27.712
00:49:09.071 : en:00:49:09.071
00:54:00.279 : en:00:54:00.279
00:57:19.394 : en:00:57:19.394
01:00:38.718 : en:01:00:38.718
01:08:29.939 : en:01:08:29.939
01:11:57.021 : en:01:11:57.021
01:16:50.940 : en:01:16:50.940
01:19:27.471 : en:01:19:27.471
01:25:04.808 : en:01:25:04.808
01:27:42.174 : en:01:27:42.174
01:31:43.790 : en:01:31:43.790
01:38:22.814 : en:01:38:22.814
01:42:36.776 : en:01:42:36.776
01:47:23.562 : en:01:47:23.562
01:52:58.689 : en:01:52:58.689
01:59:09.934 : en:01:59:09.934

General
Pirates.of.the.Caribbean.Dead.Men.Tell.No.Tales.2017.1080p.BluRay.X264-AMIABLE\Pirates.of.the.Caribbean.Dead.Men.Tell.No.Tales.2017.1080p.BluRay.X264-AMIABLE.mkv
Format : Matroska
Format version : Version 4 / Version 2
File size : 10.9 GiB
Duration : 2 h 9 min
Overall bit rate : 12.1 Mb/s
Encoded date : UTC 2010-02-22 21:41:29
Writing application : no_variable_data
Writing library : no_variable_data

Video
ID : 1
Format : AVC
Format/Info : Advanced Video Codec
Format profile : High@L4.1
Format settings, CABAC : Yes
Format settings, ReFrames : 5 frames
Codec ID : V_MPEG4/ISO/AVC
Duration : 2 h 9 min
Bit rate : 10.6 Mb/s
Width : 1 920 pixels
Height : 800 pixels
Display aspect ratio : 2.40:1
Frame rate mode : Constant
Frame rate : 23.976 (24000/1001) FPS
Color space : YUV
Chroma subsampling : 4:2:0
Bit depth : 8 bits
Scan type : Progressive
Bits/(Pixel*Frame) : 0.288
Stream size : 9.35 GiB (86%)
Writing library : x264 core 152 r2851 ba24899
Encoding settings : cabac=1 / ref=5 / deblock=1:-3:-3 / analyse=0x3:0x113 / me=umh / subme=8 / psy=1 / psy_rd=1.00:0.00 / mixed_ref=1 / me_range=32 / chroma_me=1 / trellis=1 / 8x8dct=1 / cqm=0 / deadzone=21,11 / fast_pskip=1 / chroma_qp_offset=-2 / threads=24 / lookahead_threads=4 / sliced_threads=0 / nr=0 / decimate=1 / interlaced=0 / bluray_compat=0 / constrained_intra=0 / bframes=3 / b_pyramid=2 / b_adapt=2 / b_bias=0 / direct=3 / weightb=1 / open_gop=0 / weightp=2 / keyint=240 / keyint_min=24 / scenecut=40 / intra_refresh=0 / rc_lookahead=50 / rc=2pass / mbtree=1 / bitrate=10610 / ratetol=1.0 / qcomp=0.60 / qpmin=0 / qpmax=69 / qpstep=4 / cplxblur=20.0 / qblur=0.5 / ip_ratio=1.40 / aq=3:0.80
Default : Yes
Forced : No
Statistics Tags Issue : no_variable_data 1970-01-01 00:00:00 / no_variable_data 2010-02-22 21:41:29
FromStats_BitRate : 10609789
FromStats_Duration : 02:09:07.240000000
FromStats_FrameCount : 185748
FromStats_StreamSize : 10274573059

Audio
ID : 2
Format : DTS
Format/Info : Digital Theater Systems
Mode : 16
Format settings, Endianness : Big
Codec ID : A_DTS
Duration : 2 h 9 min
Bit rate mode : Constant
Bit rate : 1 509 kb/s
Channel(s) : 6 channels
Channel positions : Front: L C R, Side: L R, LFE
Sampling rate : 48.0 kHz
Frame rate : 93.750 FPS (512 spf)
Bit depth : 24 bits
Compression mode : Lossy
Stream size : 1.36 GiB (12%)
Language : English
Default : Yes
Forced : No
Statistics Tags Issue : no_variable_data 1970-01-01 00:00:00 / no_variable_data 2010-02-22 21:41:29
FromStats_BitRate : 1508999
FromStats_Duration : 02:09:07.243000000
FromStats_FrameCount : 726304
FromStats_StreamSize : 1461323648

Text #1
ID : 3
Format : UTF-8
Codec ID : S_TEXT/UTF8
Codec ID/Info : UTF-8 Plain Text
Language : English
Default : No
Forced : No
Statistics Tags Issue : no_variable_data 1970-01-01 00:00:00 / no_variable_data 2010-02-22 21:41:29
FromStats_BitRate : 45
FromStats_Duration : 01:55:13.364000000
FromStats_FrameCount : 1435
FromStats_StreamSize : 39151

Text #2
ID : 4
Format : UTF-8
Codec ID : S_TEXT/UTF8
Codec ID/Info : UTF-8 Plain Text
Title : SDH
Language : English
Default : No
Forced : No
Statistics Tags Issue : no_variable_data 1970-01-01 00:00:00 / no_variable_data 2010-02-22 21:41:29
FromStats_BitRate : 48
FromStats_Duration : 02:07:54.167000000
FromStats_FrameCount : 1772
FromStats_StreamSize : 46849

Menu
00:00:00.000 : en:00:00:00.000
00:05:49.516 : en:00:05:49.516
00:08:34.222 : en:00:08:34.222
00:13:40.820 : en:00:13:40.820
00:16:29.155 : en:00:16:29.155
00:22:33.852 : en:00:22:33.852
00:25:19.268 : en:00:25:19.268
00:28:06.101 : en:00:28:06.101
00:31:41.775 : en:00:31:41.775
00:33:44.814 : en:00:33:44.814
00:37:02.053 : en:00:37:02.053
00:42:27.712 : en:00:42:27.712
00:49:09.071 : en:00:49:09.071
00:54:00.279 : en:00:54:00.279
00:57:19.394 : en:00:57:19.394
01:00:38.718 : en:01:00:38.718
01:08:29.939 : en:01:08:29.939
01:11:57.021 : en:01:11:57.021
01:16:50.940 : en:01:16:50.940
01:19:27.471 : en:01:19:27.471
01:25:04.808 : en:01:25:04.808
01:27:42.174 : en:01:27:42.174
01:31:43.790 : en:01:31:43.790
01:38:22.814 : en:01:38:22.814
01:42:36.776 : en:01:42:36.776
01:47:23.562 : en:01:47:23.562
01:52:58.689 : en:01:52:58.689
01:59:09.934 : en:01:59:09.934


BDRip Screenshots

Pirates of the Caribbean: Dead Men Tell No Tales (2017)

Pirates of the Caribbean: Dead Men Tell No Tales (2017)

Pirates of the Caribbean: Dead Men Tell No Tales (2017)


BRRip Screenshots

Pirates of the Caribbean: Dead Men Tell No Tales (2017)

Pirates of the Caribbean: Dead Men Tell No Tales (2017)

Pirates of the Caribbean: Dead Men Tell No Tales (2017)


BRRip 720p Screenshots

Pirates of the Caribbean: Dead Men Tell No Tales (2017)

Pirates of the Caribbean: Dead Men Tell No Tales (2017)

Pirates of the Caribbean: Dead Men Tell No Tales (2017)


BDRip 720p Screenshots

Pirates of the Caribbean: Dead Men Tell No Tales (2017)

Pirates of the Caribbean: Dead Men Tell No Tales (2017)

Pirates of the Caribbean: Dead Men Tell No Tales (2017)


BDRip 1080p Screenshots

Pirates of the Caribbean: Dead Men Tell No Tales (2017)

Pirates of the Caribbean: Dead Men Tell No Tales (2017)

Pirates of the Caribbean: Dead Men Tell No Tales (2017)


Come Visit My Blog (•‿•)