Tags
Language
Tags

Pirati dei Caraibi 5: La vendetta di Salazar (2017)

Posted By: JohnSmith
Pirati dei Caraibi 5: La vendetta di Salazar (2017)

Pirati dei Caraibi: La vendetta di Salazar / Pirates of the Caribbean: Dead Men Tell No Tales (2017)
CAMRip | AVI / XviD@1090 kb/s | 720x320 | 1h 58mn | 1.03 GB | Italian (dubbed): MP3, 128 kb/s (2 ch)
Genre: Action | Adventure | Fantasy

Sempre pronto all'avventura, lo spavaldo capitano Jack Sparrow (Johnny Depp) è costretto ancora una volta a fare i conti con la sfortuna quando i diabolici pirati fantasma guidati dal vecchio e terrificante nemico Salazar (Javier Bardem), fuggiti dal Triangolo del Diavolo, decidono di uccidere ogni pirata che incontrano. L'unica speranza di Sparrow sarà trovare il leggendario tridente di Poseidone, un potente artefatto che dona al suo possessore il controllo totale sui mari.




General
Complete name : A:\Pirati.Dei.Caraibi.La.Vendetta.Di.Salazar.2017.iTALiAN.MD.HDCAM.XviD-SPANK.avi
Format : AVI
Format/Info : Audio Video Interleave
Format profile : OpenDML
File size : 1.03 GiB
Duration : 1 h 58 min
Overall bit rate : 1 238 kb/s
Writing application : Lavf56.30.100

Video
ID : 0
Format : MPEG-4 Visual
Format profile : Advanced Simple@L1
Format settings, BVOP : No
Format settings, QPel : No
Format settings, GMC : No warppoints
Format settings, Matrix : Default (H.263)
Codec ID : XVID
Codec ID/Hint : XviD
Duration : 1 h 58 min
Bit rate : 1 092 kb/s
Width : 720 pixels
Height : 320 pixels
Display aspect ratio : 16:9
Frame rate : 30.000 FPS
Color space : YUV
Chroma subsampling : 4:2:0
Bit depth : 8 bits
Scan type : Progressive
Compression mode : Lossy
Bits/(Pixel*Frame) : 0.158
Stream size : 929 MiB (88%)
Title : Main video
Writing library : Lavc56.35.101

Audio
ID : 1
Format : MPEG Audio
Format version : Version 1
Format profile : Layer 3
Mode : Joint stereo
Mode extension : MS Stereo
Codec ID : 55
Codec ID/Hint : MP3
Duration : 1 h 58 min
Bit rate mode : Constant
Bit rate : 128 kb/s
Channel(s) : 2 channels
Sampling rate : 44.1 kHz
Compression mode : Lossy
Stream size : 109 MiB (10%)
Alignment : Aligned on interleaves
Interleave, duration : 26 ms (0.78 video frame)
Interleave, preload duration : 26 ms
Title : Unspecified




Screenshots

Pirati dei Caraibi 5: La vendetta di Salazar (2017)

Pirati dei Caraibi 5: La vendetta di Salazar (2017)

Pirati dei Caraibi 5: La vendetta di Salazar (2017)