Tags
Language
Tags

Pirmdzimtais / Firstborn (2017)

Posted By: Without
1080p (FullHD) / WEB-DL IMDb
Pirmdzimtais / Firstborn (2017)

Pirmdzimtais / Firstborn (2017)
WEB-DL 720p | MKV | 1 h 33 min | 1.59 GB | 1248x520 | AVC@1803 kb/s | Latviešu valoda AC3@640 kb/s
WEB-DL 1080p | MKV | 1 h 33 min | 3.33 GB | 1920x800 | AVC@4469 kb/s | Latviešu valoda AC3@640 kb/s
Subs: English
Genre: Thriller

A psychological thriller about a middle-aged intellectual who, in an attempt to restore his reputation in his wife's eyes, accidentally commits a murder. As time passes he begins to see a link between the deceased, his wife's pregnancy, and the mysterious blackmailer who is forcing him to act against his will.

IMDB - 3 wins & 7 nominations.


General
Pirmdzimtais.2017.720p.AMZN.WEB-DL.DDP5.1.H.264-NTG.mkv
Format : Matroska
Format version : Version 4 / Version 2
File size : 1.59 GB
Duration : 1 h 33 min
Overall bit rate : 2444 kb/s
Encoded date : UTC 2019-10-20 08:12:44
Writing application : mkvmerge v21.0.0 ('Tardigrades Will Inherit The Earth') 64-bit
Writing library : libebml v1.3.5 + libmatroska v1.4.8

Video
ID : 1
Format : AVC
Format/Info : Advanced Video Codec
Format profile : High@L3.1
Format settings, CABAC : Yes
Format settings, ReFrames : 4 frames
Codec ID : V_MPEG4/ISO/AVC
Duration : 1 h 33 min
Bit rate mode : Constant
Bit rate : 1803 kb/s
Nominal bit rate : 6000 kb/s
Width : 1248 pixels
Height : 520 pixels
Display aspect ratio : 2.40:1
Frame rate mode : Constant
Frame rate : 24.000 FPS
Color space : YUV
Chroma subsampling : 4:2:0
Bit depth : 8 bits
Scan type : Progressive
Bits/(Pixel*Frame) : 0.116
Stream size : 1.17 GB (74%)
Default : Yes
Forced : No
Color range : Limited
Color primaries : BT.709
Transfer characteristics : BT.709
Matrix coefficients : BT.709

Audio
ID : 2
Format : E-AC-3
Format/Info : Enhanced Audio Coding 3
Format settings, Endianness : Big
Codec ID : A_EAC3
Duration : 1 h 33 min
Bit rate mode : Constant
Bit rate : 640 kb/s
Channel(s) : 6 channels
Channel positions : Front: L C R, Side: L R, LFE
Sampling rate : 48.0 kHz
Frame rate : 187.500 FPS (256 spf)
Compression mode : Lossy
Stream size : 426 MB (26%)
Language : Latvian
Default : Yes
Forced : No

Text #1
ID : 3
Format : UTF-8
Codec ID : S_TEXT/UTF8
Codec ID/Info : UTF-8 Plain Text
Duration : 1 h 26 min
Bit rate : 19 b/s
Count of elements : 406
Stream size : 12.2 KiB (0%)
Language : English
Default : No
Forced : No

Text #2
ID : 4
Format : UTF-8
Codec ID : S_TEXT/UTF8
Codec ID/Info : UTF-8 Plain Text
Duration : 1 h 26 min
Bit rate : 19 b/s
Count of elements : 406
Stream size : 12.2 KiB (0%)
Title : SDH
Language : English
Default : No
Forced : No


General
Pirmdzimtais.2017.1080p.AMZN.WEB-DL.DDP5.1.H.264-NTG.mkv
Format : Matroska
Format version : Version 4 / Version 2
File size : 3.33 GB
Duration : 1 h 33 min
Overall bit rate : 5111 kb/s
Encoded date : UTC 2019-10-20 08:11:18
Writing application : mkvmerge v21.0.0 ('Tardigrades Will Inherit The Earth') 64-bit
Writing library : libebml v1.3.5 + libmatroska v1.4.8

Video
ID : 1
Format : AVC
Format/Info : Advanced Video Codec
Format profile : High@L4
Format settings, CABAC : Yes
Format settings, ReFrames : 4 frames
Codec ID : V_MPEG4/ISO/AVC
Duration : 1 h 33 min
Bit rate mode : Constant
Bit rate : 4469 kb/s
Nominal bit rate : 10000 kb/s
Width : 1920 pixels
Height : 800 pixels
Display aspect ratio : 2.40:1
Frame rate mode : Constant
Frame rate : 24.000 FPS
Color space : YUV
Chroma subsampling : 4:2:0
Bit depth : 8 bits
Scan type : Progressive
Bits/(Pixel*Frame) : 0.121
Stream size : 2.91 GB (87%)
Default : Yes
Forced : No
Color range : Limited
Color primaries : BT.709
Transfer characteristics : BT.709
Matrix coefficients : BT.709

Audio
ID : 2
Format : E-AC-3
Format/Info : Enhanced Audio Coding 3
Format settings, Endianness : Big
Codec ID : A_EAC3
Duration : 1 h 33 min
Bit rate mode : Constant
Bit rate : 640 kb/s
Channel(s) : 6 channels
Channel positions : Front: L C R, Side: L R, LFE
Sampling rate : 48.0 kHz
Frame rate : 187.500 FPS (256 spf)
Compression mode : Lossy
Stream size : 426 MB (13%)
Language : Latvian
Default : Yes
Forced : No

Text #1
ID : 3
Format : UTF-8
Codec ID : S_TEXT/UTF8
Codec ID/Info : UTF-8 Plain Text
Duration : 1 h 26 min
Bit rate : 19 b/s
Count of elements : 406
Stream size : 12.2 KiB (0%)
Language : English
Default : No
Forced : No

Text #2
ID : 4
Format : UTF-8
Codec ID : S_TEXT/UTF8
Codec ID/Info : UTF-8 Plain Text
Duration : 1 h 26 min
Bit rate : 19 b/s
Count of elements : 406
Stream size : 12.2 KiB (0%)
Title : SDH
Language : English
Default : No
Forced : No



WEB-DL 720p Screenshots

Pirmdzimtais / Firstborn (2017)

Pirmdzimtais / Firstborn (2017)

Pirmdzimtais / Firstborn (2017)


WEB-DL 1080p Screenshots

Pirmdzimtais / Firstborn (2017)

Pirmdzimtais / Firstborn (2017)

Pirmdzimtais / Firstborn (2017)


Come Visit My Blog (•‿•)