Tags
Language
Tags

Plastic Galaxy: The Story of Star Wars Toys (2014)

Posted By: Tutorial
Plastic Galaxy: The Story of Star Wars Toys (2014)

Plastic Galaxy: The Story of Star Wars Toys (2014)
WEBRip | 1920 x 1080 | .MKV/AVC @ 8845 Kbps | 1h 7mn | 4.38 GB
Audio: English AC-3 224 Kbps, 2 channels | Subs: English
Genre: Documentary, History, Sci-Fi

When Star Wars landed in the theaters, it introduced audiences to a galaxy filled with heroes and villains, robots and space ships, and a dizzying variety of alien life. But when the lights came up, they all disappeared… Unless you had all the toys. In which case, the adventure never had to end. In backyards, playgrounds, basements, and bedrooms, Star Wars toys helped kids re-enact scenes from their favorite movies, and create entirely new dangers for Luke Skywalker and his friends to face. They were lusted after on holidays and birthdays, swapped with great cunning out on the school yard, and carefully collected like fine treasures. Like no toys before them, the action figures, space ships, play sets, and props were a phenomenon that swept the nation with as much force as the film that inspired them. Along the way they transformed both the toy and movie industries, earned those behind them vast amounts of wealth, and ultimately created a hobby that, 30 years later, still holds sway…
Director: Brian Stillman
Writer: Brian Stillman (story)
Stars: Tom Beaumont, Tom Berges, John Booth

More info: IMDB

General
Unique ID : 232949783362400594813034398492951008263 (0xAF407F0F96BD9E6DB1FB7E5FC8FB5407)
Complete name : Plastic.Galaxy.The.Story.of.Star.Wars.Toys.mkv
Format : Matroska
Format version : Version 4 / Version 2
File size : 4.38 GiB
Duration : 1h 7mn
Overall bit rate mode : Variable
Overall bit rate : 9 254 Kbps
Encoded date : UTC 2017-01-02 22:36:13
Writing application : mkvmerge v9.6.0 ('Slave To Your Mind') 64bit
Writing library : libebml v1.3.4 + libmatroska v1.4.5
DURATION : 01:07:42.016000000
NUMBER_OF_FRAMES : 126938
NUMBER_OF_BYTES : 113736448
_STATISTICS_WRITING_APP : mkvmerge v9.6.0 ('Slave To Your Mind') 64bit
_STATISTICS_WRITING_DATE_UTC : 2017-01-02 22:36:13
_STATISTICS_TAGS : BPS DURATION NUMBER_OF_FRAMES NUMBER_OF_BYTES

Video
ID : 1
Format : AVC
Format/Info : Advanced Video Codec
Format profile : High@L4.0
Format settings, CABAC : Yes
Format settings, ReFrames : 4 frames
Codec ID : V_MPEG4/ISO/AVC
Duration : 1h 7mn
Bit rate mode : Variable
Bit rate : 8 845 Kbps
Maximum bit rate : 15.0 Mbps
Width : 1 920 pixels
Height : 1 080 pixels
Display aspect ratio : 16:9
Frame rate : 23.976 fps
Color space : YUV
Chroma subsampling : 4:2:0
Bit depth : 8 bits
Scan type : Progressive
Bits/(Pixel*Frame) : 0.178
Stream size : 4.18 GiB (96%)
Writing library : x264 core 148 r2623 d5b2374
Encoding settings : cabac=1 / ref=4 / deblock=1:-1:-1 / analyse=0x3:0x133 / me=umh / subme=9 / psy=1 / psy_rd=1.00:0.15 / mixed_ref=1 / me_range=24 / chroma_me=1 / trellis=2 / 8x8dct=1 / cqm=0 / deadzone=21,11 / fast_pskip=1 / chroma_qp_offset=-3 / threads=34 / lookahead_threads=5 / sliced_threads=0 / nr=150 / decimate=1 / interlaced=0 / bluray_compat=0 / constrained_intra=0 / bframes=8 / b_pyramid=2 / b_adapt=2 / b_bias=0 / direct=3 / weightb=1 / open_gop=0 / weightp=2 / keyint=120 / keyint_min=61 / scenecut=0 / intra_refresh=0 / rc_lookahead=120 / rc=crf / mbtree=1 / crf=18.0 / qcomp=0.60 / qpmin=0 / qpmax=69 / qpstep=4 / vbv_maxrate=15000 / vbv_bufsize=31250 / crf_max=0.0 / nal_hrd=vbr / filler=0 / ip_ratio=1.40 / aq=3:1.00
Default : Yes
Forced : No
Color primaries : BT.709-5, BT.1361, IEC 61966-2-4, SMPTE RP177
Transfer characteristics : BT.709-5, BT.1361
Matrix coefficients : BT.709-5, BT.1361, IEC 61966-2-4 709, SMPTE RP177

Audio
ID : 3
Format : E-AC-3
Format/Info : Audio Coding 3
Codec ID : A_EAC3
Duration : 1h 7mn
Bit rate mode : Constant
Bit rate : 224 Kbps
Channel(s) : 2 channels
Channel positions : Front: L R
Sampling rate : 48.0 KHz
Compression mode : Lossy
Stream size : 108 MiB (2%)
Language : English
Default : Yes
Forced : No

Text
ID : 2
Format : UTF-8
Codec ID : S_TEXT/UTF8
Codec ID/Info : UTF-8 Plain Text
Language : English
Default : No
Forced : No
Screenshots

Plastic Galaxy: The Story of Star Wars Toys (2014)

Plastic Galaxy: The Story of Star Wars Toys (2014)

Plastic Galaxy: The Story of Star Wars Toys (2014)

Plastic Galaxy: The Story of Star Wars Toys (2014)

Welcome to my blog - daily update!