Tags
Language
Tags

Quand on crie au loup (2019)

Posted By: JohnSmith
1080p (FullHD) / WEB-DL IMDb
Quand on crie au loup (2019)

Quand on crie au loup (2019)
WEB-DL 1080p | MKV / AVC@5190 kb/s | 1916x1036 | 1h 20mn
Français (VFi): AC3, 384 kb/s (6 ch) | Subtitles: Français | 3.12 GB
Genre: Comedy | Family

Victor Bogomil, 12 ans, vit seul avec son grand-père, gardien d’immeuble.
Il passe le plus clair de son temps à se faire peur en inventant des histoires invraisemblables : un jour, c’est la police qui est appelée pour des cambrioleurs qui seraient entrés dans la cave par effraction, le lendemain c’est les pompiers pour un début d’incendie qui menacerait tout l’immeuble… Bref, Victor a une imagination très fertile - et son entourage n’en peut plus.
Jusqu’au jour où deux braqueurs en cavale - des vrais! - s’introduisent dans l'immeuble. Mais à force de crier au loup plus personne ne le croit, Victor va devoir se débrouiller tout seul.


General
Unique ID : 78575061258130857630211453416803199602 (0x3B1D019F3AEC5B314E6F867C2AD0EA72)
Complete name : C:\Quand.on.Crie.au.Loup.2019.FRENCH.1080p.WEB.mkv
Format : Matroska
Format version : Version 4
File size : 3.12 GiB
Duration : 1 h 20 min
Overall bit rate : 5 574 kb/s
Encoded date : UTC 2019-10-03 10:30:29
Writing application : mkvmerge v37.0.0 ('Leave It') 64-bit
Writing library : libebml v1.3.9 + libmatroska v1.5.2

Video
ID : 4
Format : AVC
Format/Info : Advanced Video Codec
Format profile : High@L4
Format settings : CABAC / 4 Ref Frames
Format settings, CABAC : Yes
Format settings, Reference : 4 frames
Codec ID : V_MPEG4/ISO/AVC
Duration : 1 h 20 min
Bit rate : 5 188 kb/s
Width : 1 916 pixels
Height : 1 036 pixels
Display aspect ratio : 1.85:1
Frame rate mode : Constant
Frame rate : 25.000 FPS
Color space : YUV
Chroma subsampling : 4:2:0
Bit depth : 8 bits
Scan type : Progressive
Bits/(Pixel*Frame) : 0.105
Stream size : 2.90 GiB (93%)
Language : English
Default : Yes
Forced : No
Color range : Limited
Color primaries : BT.709
Transfer characteristics : BT.709
Matrix coefficients : BT.709

Audio
ID : 3
Format : AC-3
Format/Info : Audio Coding 3
Commercial name : Dolby Digital
Codec ID : A_AC3
Duration : 1 h 20 min
Bit rate mode : Constant
Bit rate : 384 kb/s
Channel(s) : 6 channels
Channel layout : L R C LFE Ls Rs
Sampling rate : 48.0 kHz
Frame rate : 31.250 FPS (1536 SPF)
Bit depth : 16 bits
Compression mode : Lossy
Delay relative to video : -40 ms
Stream size : 220 MiB (7%)
Language : French
Service kind : Complete Main
Default : Yes
Forced : No

Text #1
ID : 1
Format : UTF-8
Codec ID : S_TEXT/UTF8
Codec ID/Info : UTF-8 Plain Text
Duration : 18 s 280 ms
Bit rate : 101 b/s
Count of elements : 5
Stream size : 233 Bytes (0%)
Title : Forced
Language : French
Default : Yes
Forced : No

Text #2
ID : 2
Format : UTF-8
Codec ID : S_TEXT/UTF8
Codec ID/Info : UTF-8 Plain Text
Duration : 1 h 19 min
Bit rate : 67 b/s
Count of elements : 1520
Stream size : 39.2 KiB (0%)
Title : SDH
Language : French
Default : No
Forced : No

Menu
00:00:00.000 : en:Chapitre 1
00:09:42.640 : en:Chapitre 2
00:20:40.240 : en:Chapitre 3
00:30:17.440 : en:Chapitre 4
00:40:52.760 : en:Chapitre 5
00:50:34.959 : en:Chapitre 6
01:00:33.198 : en:Chapitre 7
01:07:05.918 : en:Chapitre 8
01:14:59.957 : en:Chapitre 9




Screenshots

Quand on crie au loup (2019)

Quand on crie au loup (2019)

Quand on crie au loup (2019)