Rank (2006)

Posted By: vivid23
Rank (2006)

Rank (2006)
DVDrip | 608x352 | AVI/XviD @ 863 Kbps | 96mn | Audio: English MP3 128 kbps, 2 channels | Subs: None | 697 MB
Genre: Documentary

Seven days, 45 finalists, one World Champion. Shot on location in Las Vegas, Nevada, Rank takes us from the ranch to the arena for the struggle of the three highest-ranking bull riders competing for the title of PBR World Champion. The three contenders: Justin McBride, a third generation bull rider; Mike Lee, 21 year-old born-again Christian and 34 year-old Brazilian Adriano Moraes, already a two-time PBR World Champion, who has been riding since the age of 18 and is now in the twilight of his bull riding career. This documentary brings the reality of this hazardous sport into focus for the first time. From preparations to ride through severe injuries and finally, victory for one: a gold belt buckle and a check for one million dollars.

More info

Video
ID : 0
Format : MPEG-4 Visual
Format profile : Advanced Simple@L5
Format settings, BVOP : Yes
Format settings, QPel : No
Format settings, GMC : No warppoints
Format settings, Matrix : Default (H.263)
Codec ID : XVID
Codec ID/Hint : XviD
Duration : 1h 36mn
Bit rate : 863 Kbps
Width : 608 pixels
Height : 352 pixels
Display aspect ratio : 16:9
Frame rate : 23.976 fps
Color space : YUV
Chroma subsampling : 4:2:0
Bit depth : 8 bits
Scan type : Progressive
Compression mode : Lossy
Bits/(Pixel*Frame) : 0.168
Stream size : 597 MiB (86%)
Writing library : XviD 1.1.2 (UTC 2006-11-01)

Audio
ID : 1
Format : MPEG Audio
Format version : Version 1
Format profile : Layer 3
Mode : Joint stereo
Mode extension : MS Stereo
Codec ID : 55
Codec ID/Hint : MP3
Duration : 1h 36mn
Bit rate mode : Variable
Bit rate : 128 Kbps
Channel(s) : 2 channels
Sampling rate : 48.0 KHz
Compression mode : Lossy
Stream size : 91.6 MiB (13%)
Alignment : Aligned on interleaves
Interleave, duration : 24 ms (0.58 video frame)
Interleave, preload duration : 133 ms
Writing library : LAME3.90.
Encoding settings : -m j -V 4 -q 2 -lowpass 17.6 –abr 128


Week End - 17 février 2018

Week End - 17 février 2018


Feel free to contact me when links are dead