Recess: School's Out (2001)

Posted By: Tavaz
1080p (FullHD) / WEB-DL IMDb
Recess: School's Out (2001)

Recess: School's Out (2001)
WEB-DL | MKV | 1920x1080 | English | H264 @ 3868 kbps | E-AC-3 @ 224 kbps | 1 h 23 min | 2.38 GiB
Subtitles: English
Genre: Animation, Comedy, Science Fiction, Family

Recess: School's Out is a 2001 animated film based on the Disney television series Recess. This film was produced by Walt Disney Pictures and was released theatrically nationwide on February 16, 2001.It's the most exciting time of year at Third Street Elementary– the end of the School Year! But boredom quickly sets in for protagonist TJ Detweiler, as his friends are headed for Summer Camp. One day, while passing by the school on his bike, he notices a green glow coming from the school's auditorium. This is the work of the insidious ex-principal of Third Street, Phillium Benedict and his gang of ninjas and secret service look-alikes! Benedict is planning to get rid of Summer Vacation using his newly-acquired Tractor Beam, which he stole from the US Military Base in an effort to raise US Test Scores, and it's up to the Recess Gang to stop him! In the end.

31fca8eb9738473392be9e693e991cc8.mkv (2.4 GB)



General
Complete name : ./31fca8eb9738473392be9e693e991cc8.mkv
Format : Matroska
Format version : Version 4 / Version 2
File size : 2.38 GiB
Duration : 1 h 23 min
Overall bit rate mode : Variable
Overall bit rate : 4 094 kb/s
Encoded date : UTC 2018-04-15 19:53:53
Writing application : mkvmerge v19.0.0 ('Brave Captain') 64-bit
Writing library : libebml v1.3.5 + libmatroska v1.4.8

Video
ID : 1
Format : AVC
Format/Info : Advanced Video Codec
Format profile : High@L4
Format settings : CABAC / 4 Ref Frames
Format settings, CABAC : Yes
Format settings, RefFrames : 4 frames
Codec ID : V_MPEG4/ISO/AVC
Duration : 1 h 23 min
Bit rate mode : Variable
Bit rate : 3 868 kb/s
Maximum bit rate : 15.0 Mb/s
Width : 1 920 pixels
Height : 1 080 pixels
Display aspect ratio : 16:9
Frame rate mode : Constant
Frame rate : 23.976 (24000/1001) FPS
Color space : YUV
Chroma subsampling : 4:2:0
Bit depth : 8 bits
Scan type : Progressive
Bits/(Pixel*Frame) : 0.078
Stream size : 2.25 GiB (94%)
Writing library : x264 core 148 r2623 d5b2374
Encoding settings : cabac=1 / ref=4 / deblock=1:-1:-1 / analyse=0x3:0x133 / me=umh / subme=9 / psy=1 / psy_rd=1.00:0.15 / mixed_ref=1 / me_range=24 / chroma_me=1 / trellis=2 / 8x8dct=1 / cqm=0 / deadzone=21,11 / fast_pskip=1 / chroma_qp_offset=-3 / threads=34 / lookahead_threads=5 / sliced_threads=0 / nr=150 / decimate=1 / interlaced=0 / bluray_compat=0 / constrained_intra=0 / bframes=8 / b_pyramid=2 / b_adapt=2 / b_bias=0 / direct=3 / weightb=1 / open_gop=0 / weightp=2 / keyint=120 / keyint_min=61 / scenecut=0 / intra_refresh=0 / rc_lookahead=120 / rc=crf / mbtree=1 / crf=18.0 / qcomp=0.60 / qpmin=0 / qpmax=69 / qpstep=4 / vbv_maxrate=15000 / vbv_bufsize=31250 / crf_max=0.0 / nal_hrd=vbr / filler=0 / ip_ratio=1.40 / aq=3:1.00
Default : Yes
Forced : No
Color range : Limited
Color primaries : BT.709
Transfer characteristics : BT.709
Matrix coefficients : BT.709

Audio
ID : 2
Format : E-AC-3
Format/Info : Enhanced Audio Coding 3
Format settings, Endianness : Big
Codec ID : A_EAC3
Duration : 1 h 23 min
Bit rate mode : Constant
Bit rate : 224 kb/s
Channel(s) : 2 channels
Channel positions : Front: L R
Sampling rate : 48.0 kHz
Frame rate : 187.500 FPS (256 SPF)
Compression mode : Lossy
Stream size : 134 MiB (5%)
Language : English
Service kind : Complete Main
Default : Yes
Forced : No

Text
ID : 3
Format : UTF-8
Codec ID : S_TEXT/UTF8
Codec ID/Info : UTF-8 Plain Text
Duration : 1 h 22 min
Bit rate : 89 b/s
Count of elements : 1291
Stream size : 54.4 KiB (0%)
Language : English
Default : No
Forced : No

Menu
00:00:00.000 : en:Scene 1
00:00:15.000 : en:Scene 2
00:02:24.000 : en:Scene 3
00:06:34.000 : en:Scene 4
00:09:07.000 : en:Scene 5
00:13:22.000 : en:Scene 6
00:16:35.000 : en:Scene 7
00:19:38.000 : en:Scene 8
00:22:54.000 : en:Scene 9
00:25:22.000 : en:Scene 10
00:28:01.000 : en:Scene 11
00:31:31.000 : en:Scene 12
00:33:53.000 : en:Scene 13
00:40:11.000 : en:Scene 14
00:43:32.000 : en:Scene 15
00:50:00.000 : en:Scene 16
00:53:30.000 : en:Scene 17
00:57:44.000 : en:Scene 18
01:00:41.000 : en:Scene 19
01:05:30.000 : en:Scene 20
01:12:10.000 : en:Scene 21
01:16:30.000 : en:Scene 22





Recess: School's Out (2001)


Recess: School's Out (2001)


Recess: School's Out (2001)


Recess: School's Out (2001)


Recess: School's Out (2001)