Red Box Films - Everything or Nothing: The Untold Story of 007 (2013)

Posted By: Polik88
Red Box Films - Everything or Nothing: The Untold Story of 007 (2013)

Red Box Films - Everything or Nothing: The Untold Story of 007 (2013)
HDTV | English | MKV (H264) 25.000 fps 1951 Kbps | 1024x576 | AC3 128 Kbps 48.0 khz | 1h 33mn | 1.39 GB
Genre: Documentary

Directed by Stevan Riley (Fire in Babylon), Everything or Nothing focuses on three men with a shared dream–Bond producers Albert R. Broccoli, Harry Saltzman and author Ian Fleming. It’s the thrilling and inspiring narrative behind the longest running film franchise in cinema history which began in 1962. The film includes exclusive interviews with Bond actors Sean Connery, George Lazenby, Timothy Dalton, Roger Moore, Pierce Brosnan and Daniel Craig as well as unprecedented access to EON Productions’ extensive archive of behind the scenes material.
General
Complete name : Everything.or.Nothing.The.Untold.Story.of.007.mkv
Format : Matroska
Format version : Version 2
File size : 1.39 GiB
Duration : 1h 33mn
Overall bit rate : 2 121 Kbps
Writing application : Lavf51.12.1
Writing library : Lavf51.12.1

Video
ID : 1
Format : AVC
Format/Info : Advanced Video Codec
Format profile : High@L3.1
Format settings, CABAC : No
Format settings, ReFrames : 1 frame
Format settings, GOP : M=1, N=12
Codec ID : V_MPEG4/ISO/AVC
Duration : 1h 33mn
Bit rate : 1 951 Kbps
Width : 1 024 pixels
Height : 576 pixels
Display aspect ratio : 16:9
Frame rate mode : Variable
Frame rate : 25.000 fps
Color space : YUV
Chroma subsampling : 4:2:0
Bit depth : 8 bits
Scan type : Progressive
Bits/(Pixel*Frame) : 0.132
Stream size : 1.28 GiB (92%)
Default : Yes
Forced : No

Audio
ID : 2
Format : AC-3
Format/Info : Audio Coding 3
Mode extension : CM (complete main)
Format settings, Endianness : Big
Codec ID : A_AC3
Duration : 1h 33mn
Bit rate mode : Constant
Bit rate : 128 Kbps
Channel(s) : 2 channels
Channel positions : Front: L R
Sampling rate : 48.0 KHz
Bit depth : 16 bits
Compression mode : Lossy
Stream size : 86.1 MiB (6%)
Default : Yes
Forced : No

Screenshots

Red Box Films - Everything or Nothing: The Untold Story of 007 (2013)

Red Box Films - Everything or Nothing: The Untold Story of 007 (2013)

Red Box Films - Everything or Nothing: The Untold Story of 007 (2013)

no mirrors please, Follow The Rules
Visit Polik88 Blog Here
no password