Repeaters (2010)

Posted By: FenixN
Repeaters (2010)

Repeaters (2010)
DVDRip | AVI / XviD, 958 kb/s | 640x272 | 01:29:13 | French: MP3, 128 kb/s (2 ch) | 699 mb
Genre: Drama, Sci-Fi, Thriller | Canada

Trois patients adolescents d'un centre de désintoxication tentent de tirer avantage du fait qu'ils sont condamnés à revivre à chaque jour la même journée. Mais lorsque l'un d'eux s'abandonne à des pulsions violentes, les deux autres se mettent en devoir de le contrôler.

imdb: 6,0/10 (32 votes)

Format : AVI
Format/Info : Audio Video Interleave
File size : 699 MiB
Duration : 1h 29mn
Overall bit rate : 1 095 Kbps
Writing application : FairUse Wizard - http://fairusewizard.com
Writing library : The best and REALLY easy backup tool

Video
ID : 0
Format : MPEG-4 Visual
Format profile : Advanced Simple@L5
Format settings, BVOP : 1
Format settings, QPel : No
Format settings, GMC : No warppoints
Format settings, Matrix : Default (MPEG)
Muxing mode : Packed bitstream
Codec ID : XVID
Codec ID/Hint : XviD
Duration : 1h 29mn
Bit rate : 958 Kbps
Width : 640 pixels
Height : 272 pixels
Display aspect ratio : 2.35:1
Frame rate : 23.976 fps
Color space : YUV
Chroma subsampling : 4:2:0
Bit depth : 8 bits
Scan type : Progressive
Compression mode : Lossy
Bits/(Pixel*Frame) : 0.230
Stream size : 611 MiB (87%)
Writing library : XviD 1.2.1 (UTC 2008-12-04)

Audio
ID : 1
Format : MPEG Audio
Format version : Version 1
Format profile : Layer 3
Mode : Joint stereo
Mode extension : MS Stereo
Codec ID : 55
Codec ID/Hint : MP3
Duration : 1h 29mn
Bit rate mode : Constant
Bit rate : 128 Kbps
Channel(s) : 2 channels
Sampling rate : 48.0 KHz
Compression mode : Lossy
Stream size : 81.7 MiB (12%)
Alignment : Aligned on interleaves
Interleave, duration : 42 ms (1.00 video frame)
Interleave, preload duration : 504 ms
Writing library : LAME3.97
Encoding settings : -m j -V 4 -q 2 -lowpass 17 -b 128


screenshot
Repeaters (2010)

Repeaters (2010)

Repeaters (2010)


Welcome to the best movies collection (English, German, French language), best software, best eLearning video and many-many more: LINK
Do not forget to check my blog! Updated regularly!