Tags
Language
Tags

Requiem pour une tueuse (2011)

Posted By: FenixN
Requiem pour une tueuse (2011)

Requiem pour une tueuse (2011)
DVDRip | AVI / XviD, 967 kb/s | 656x272 | 01:28:32 | French: MP3, 128 kb/s (2 ch) | 700 mb
Genre: Thriller | France

Lucrèce est tueuse à gages. Spécialisée dans l'usage des poisons, et passionnée d'Opéra, elle va devoir s'acquitter d'un contrat difficile au c?ur des Alpes Suisses. Sous les traits d'une chanteuse lyrique, Lucrèce devra se produire sur la scène du très select Festival d'Ermeux et tenter d'y abattre l'un de ses partenaires : le baryton britannique Alexander Child. Ce dernier, récemment acquéreur d'une distillerie en Écosse, demeure le seul obstacle à un projet de pipeline stratégique aux enjeux économiques considérables. Il vient de gagner un long bras de fer juridique contre la British Oil, qui n'a plus d'autre choix que de l'éliminer. Pour compliquer le tout, le contre-espionnage français, informé de ce contrat, envoie Rico, ancien du Service Action, pour s'infiltrer dans l'orchestre, démasquer et effacer tous ceux qui en veulent à Alexander Child. Rico n'a aucune information sur la tueuse et il aura beaucoup de difficultés à la localiser au milieu de toute une galerie de portraits : un chef d'orchestre odieux, un ténor particulièrement orgueilleux et un directeur de festival étrangement stressé…Au rythme des répétitions du sublime Messie de Haendel, c'est donc un chassé-croisé haletant qui commence…et pourrait bien finir en Requiem…pour une tueuse !

imdb: 4,5/10 (27 votes)

Format : AVI
Format/Info : Audio Video Interleave
File size : 700 MiB
Duration : 1h 28mn
Overall bit rate : 1 105 Kbps
Writing application : FairUse Wizard - http://fairusewizard.com
Writing library : The best and REALLY easy backup tool

Video
ID : 0
Format : MPEG-4 Visual
Format profile : Advanced Simple@L5
Format settings, BVOP : 1
Format settings, QPel : No
Format settings, GMC : No warppoints
Format settings, Matrix : Default (MPEG)
Muxing mode : Packed bitstream
Codec ID : XVID
Codec ID/Hint : XviD
Duration : 1h 28mn
Bit rate : 967 Kbps
Width : 656 pixels
Height : 272 pixels
Display aspect ratio : 2.40:1
Frame rate : 25.000 fps
Color space : YUV
Chroma subsampling : 4:2:0
Bit depth : 8 bits
Scan type : Progressive
Compression mode : Lossy
Bits/(Pixel*Frame) : 0.217
Stream size : 613 MiB (88%)
Writing library : XviD 1.2.1 (UTC 2008-12-04)

Audio
ID : 1
Format : MPEG Audio
Format version : Version 1
Format profile : Layer 3
Mode : Joint stereo
Mode extension : MS Stereo
Codec ID : 55
Codec ID/Hint : MP3
Duration : 1h 28mn
Bit rate mode : Constant
Bit rate : 128 Kbps
Channel(s) : 2 channels
Sampling rate : 48.0 KHz
Compression mode : Lossy
Stream size : 81.1 MiB (12%)
Alignment : Aligned on interleaves
Interleave, duration : 40 ms (1.00 video frame)
Interleave, preload duration : 504 ms
Writing library : LAME3.97
Encoding settings : -m j -V 4 -q 2 -lowpass 17 -b 128


screenshot
Requiem pour une tueuse (2011)

Requiem pour une tueuse (2011)

Requiem pour une tueuse (2011)


Welcome to the best movies collection (English, German, French language), best software, best eLearning video and many-many more: LINK
Do not forget to check my blog! Updated regularly!