Requiem pour une tueuse (2011)

Posted By: FenixN
Requiem pour une tueuse (2011)

Requiem pour une tueuse (2011)
DVDRip | AVI / XviD, 1750 kb/s | 656x272 | 01:28:32 | French: AC3, 448 kb/s (6 ch) | 1.37 GB
Genre: Thriller | France

Lucrèce est tueuse à gages. Spécialisée dans l'usage des poisons, et passionnée d'Opéra, elle va devoir s'acquitter d'un contrat difficile au c?ur des Alpes Suisses. Sous les traits d'une chanteuse lyrique, Lucrèce devra se produire sur la scène du très select Festival d'Ermeux et tenter d'y abattre l'un de ses partenaires : le baryton britannique Alexander Child. Ce dernier, récemment acquéreur d'une distillerie en Écosse, demeure le seul obstacle à un projet de pipeline stratégique aux enjeux économiques considérables. Il vient de gagner un long bras de fer juridique contre la British Oil, qui n'a plus d'autre choix que de l'éliminer. Pour compliquer le tout, le contre-espionnage français, informé de ce contrat, envoie Rico, ancien du Service Action, pour s'infiltrer dans l'orchestre, démasquer et effacer tous ceux qui en veulent à Alexander Child.

imdb: 4,5/10 (27 votes)

Format : AVI
Format/Info : Audio Video Interleave
File size : 1.37 GiB
Duration : 1h 28mn
Overall bit rate : 2 207 Kbps
Writing application : FairUse Wizard - http://fairusewizard.com
Writing library : The best and REALLY easy backup tool

Video
ID : 0
Format : MPEG-4 Visual
Format profile : Advanced Simple@L5
Format settings, BVOP : 1
Format settings, QPel : No
Format settings, GMC : No warppoints
Format settings, Matrix : Default (MPEG)
Muxing mode : Packed bitstream
Codec ID : XVID
Codec ID/Hint : XviD
Duration : 1h 28mn
Bit rate : 1 750 Kbps
Width : 656 pixels
Height : 272 pixels
Display aspect ratio : 2.40:1
Frame rate : 25.000 fps
Color space : YUV
Chroma subsampling : 4:2:0
Bit depth : 8 bits
Scan type : Progressive
Compression mode : Lossy
Bits/(Pixel*Frame) : 0.392
Stream size : 1.08 GiB (79%)
Writing library : XviD 1.2.1 (UTC 2008-12-04)

Audio
ID : 1
Format : AC-3
Format/Info : Audio Coding 3
Mode extension : CM (complete main)
Codec ID : 2000
Duration : 1h 28mn
Bit rate mode : Constant
Bit rate : 448 Kbps
Channel(s) : 6 channels
Channel positions : Front: L C R, Side: L R, LFE
Sampling rate : 48.0 KHz
Bit depth : 16 bits
Compression mode : Lossy
Stream size : 284 MiB (20%)
Alignment : Split accross interleaves
Interleave, duration : 40 ms (1.00 video frame)
Interleave, preload duration : 500 ms


screenshot
Requiem pour une tueuse (2011)

Requiem pour une tueuse (2011)

Requiem pour une tueuse (2011)

Requiem pour une tueuse (2011)


Welcome to the best movies collection (English, German, French language), best software, best eLearning video and many-many more: LINK
Do not forget to check my blog! Updated regularly!