Reveal the Path (2012)

Posted By: vivid23
Reveal the Path (2012)

Reveal the Path (2012)
DVDrip | 704x480 | MKV/x264 @ 2412 Kbps | 73mn | Audio: English AC3 256 kbps, 2 channels | Subs: None | 1.53 GB
Genre: Documentary

Reveal the Path is a genre-defying adventure film that contemplates what it means to live an inspired life using the bicycle as a mechanism to explore, dream and discover.

Regions explored include Scotlands lush valleys, Europes snow capped mountains, Moroccos high desert landscapes, Nepals rural countryside and Alaskas rugged coastal beaches. Ride along and get lost in the wonders of the world Meet the locals living modest yet seemingly fulfilling lives, leading us to question what it means to live an inspired life however humble or extravagant. Filmed across four continents and featuring Tour Divide race legends, Matthew Lee & Kurt Refsnider, this immersive film is sure to ignite the dream in you.

Join in as the creators of Ride the Divide take you on an adventure that will leave you with an eager desire to chart your own course to far away lands or simply to discover with eyes wide open whats right around the bend.

More info

Video
ID : 1
Format : AVC
Format/Info : Advanced Video Codec
Format profile : High@L3.1
Format settings, CABAC : Yes
Format settings, ReFrames : 9 frames
Codec ID : V_MPEG4/ISO/AVC
Duration : 1h 13mn
Bit rate : 2 412 Kbps
Width : 704 pixels
Height : 480 pixels
Display aspect ratio : 16:9
Original display aspect ratio : 16:9
Frame rate mode : Variable
Frame rate : 23.976 fps
Standard : NTSC
Color space : YUV
Chroma subsampling : 4:2:0
Bit depth : 8 bits
Scan type : Progressive
Bits/(Pixel*Frame) : 0.298
Stream size : 1.24 GiB (81%)
Writing library : x264 core 120
Encoding settings : cabac=1 / ref=9 / deblock=1:-2:-2 / analyse=0x3:0x133 / me=umh / subme=9 / psy=1 / psy_rd=1.00:0.00 / mixed_ref=1 / me_range=28 / chroma_me=1 / trellis=2 / 8x8dct=1 / cqm=0 / deadzone=21,11 / fast_pskip=0 / chroma_qp_offset=-2 / threads=6 / sliced_threads=0 / nr=0 / decimate=1 / interlaced=0 / bluray_compat=0 / constrained_intra=0 / bframes=6 / b_pyramid=2 / b_adapt=2 / b_bias=0 / direct=3 / weightb=1 / open_gop=0 / weightp=2 / keyint=240 / keyint_min=24 / scenecut=40 / intra_refresh=0 / rc_lookahead=50 / rc=crf / mbtree=1 / crf=18.5 / qcomp=0.60 / qpmin=3 / qpmax=69 / qpstep=4 / ip_ratio=1.40 / aq=1:1.00
Language : English
Color primaries : BT.601-6 525, BT.1358 525, BT.1700 NTSC, SMPTE 170M
Transfer characteristics : BT.709-5, BT.1361
Matrix coefficients : BT.601-6 525, BT.1358 525, BT.1700 NTSC, SMPTE 170M

Audio #1
ID : 2
Format : AC-3
Format/Info : Audio Coding 3
Mode extension : CM (complete main)
Codec ID : A_AC3
Duration : 1h 13mn
Bit rate mode : Constant
Bit rate : 256 Kbps
Channel(s) : 2 channels
Channel positions : Front: L R
Sampling rate : 48.0 KHz
Bit depth : 16 bits
Compression mode : Lossy
Stream size : 135 MiB (9%)

Audio #2
ID : 3
Format : AC-3
Format/Info : Audio Coding 3
Mode extension : CM (complete main)
Codec ID : A_AC3
Duration : 1h 13mn
Bit rate mode : Constant
Bit rate : 256 Kbps
Channel(s) : 2 channels
Channel positions : Front: L R
Sampling rate : 48.0 KHz
Bit depth : 16 bits
Compression mode : Lossy
Stream size : 135 MiB (9%)

Menu
00:00:00.000 : Chapter 1
00:03:40.687 : Chapter 2
00:20:36.501 : Chapter 3
00:23:15.861 : Chapter 4
00:29:41.045 : Chapter 5
00:40:05.669 : Chapter 6
00:57:31.114 : Chapter 7
01:10:30.292 : Chapter 8
01:13:16.859 : Chapter 9


Reveal the Path (2012)

Reveal the Path (2012)


Feel free to contact me when links are dead