Tags
Language
Tags

History Channel - Sea Tales: Revolt on the Potemkin (1997) [Repost]

Posted By: Tutorial
History Channel - Sea Tales: Revolt on the Potemkin (1997) [Repost]

History Channel - Sea Tales: Revolt on the Potemkin (1997)
VHS | 720 x 544 | .AVI/DivX @ 2345 Kbps | 47 min 51 s | 894 MB
Audio: English AC-3 256 Kbps, 2 channels | Subs: None
Genre: Documentary, History

It all started with bad meat. When it was over, more than 5,000 had died and the pride of the Russian Black Sea Fleet lay beneath the waters, scuttled by her crew. REVOLT ON THE POTEMKIN is a detailed account of one of the strangest incidents in maritime history. When his crew refused to eat soup made with tainted meat, Commander Giliarovsky treated their actions as mutiny, and ordered that a number of randomly selected crewmen be shot! When the shooters failed to carry out his order, Giliarovsky killed one himself, and a real mutiny ensued. Formerly classified documents, accounts from men who were there and interviews with maritime historians chronicle the chaos that followed. Giliarovsky and several other officers were killed, and when the ship docked in Odessa, rioting sparked by the display of the dead crewman's martyr-body claimed more than 5,000 lives. Eventually, the mutineers took the Potemkin back out to sea, where they scuttled the mighty ship. It's a riveting chronicle of one of the strangest chapters in the maritime history, the most famous mutiny since the Bounty.

General
Complete name : HC.Sea.Tales.Revolt.on.the.Potemkin.avi
Format : AVI
Format/Info : Audio Video Interleave
File size : 894 MiB
Duration : 47 min 51 s
Overall bit rate : 2 613 kb/s

Video
ID : 0
Format : MPEG-4 Visual
Format profile : Advanced Simple@L5
Format settings, BVOP : 1
Format settings, QPel : No
Format settings, GMC : No warppoints
Format settings, Matrix : Default (MPEG)
Codec ID : DX50
Codec ID/Hint : DivX 5
Duration : 47 min 51 s
Bit rate : 2 345 kb/s
Width : 720 pixels
Height : 544 pixels
Display aspect ratio : 4:3
Frame rate : 29.970 (30000/1001) FPS
Color space : YUV
Chroma subsampling : 4:2:0
Bit depth : 8 bits
Scan type : Progressive
Compression mode : Lossy
Bits/(Pixel*Frame) : 0.200
Stream size : 803 MiB (90%)
Writing library : XviD 1.2.1 (UTC 2008-12-04)

Audio
ID : 1
Format : AC-3
Format/Info : Audio Coding 3
Format settings, Endianness : Big
Codec ID : 2000
Duration : 47 min 51 s
Source duration : 47 min 51 s
Bit rate mode : Constant
Bit rate : 256 kb/s
Channel(s) : 2 channels
Channel positions : Front: L R
Sampling rate : 48.0 kHz
Frame rate : 31.250 FPS (1536 spf)
Bit depth : 16 bits
Compression mode : Lossy
Stream size : 87.6 MiB (10%)
Alignment : Aligned on interleaves
Interleave, duration : 33 ms (1.00 video frame)
Service kind : Complete Main
Screenshots

History Channel - Sea Tales: Revolt on the Potemkin (1997) [Repost]

History Channel - Sea Tales: Revolt on the Potemkin (1997) [Repost]

History Channel - Sea Tales: Revolt on the Potemkin (1997) [Repost]

History Channel - Sea Tales: Revolt on the Potemkin (1997) [Repost]

History Channel - Sea Tales: Revolt on the Potemkin (1997) [Repost]

Welcome to my blog - daily update!