Riccardo va all'inferno (2017)

Posted By: JohnSmith
SD / DVDRip IMDb
Riccardo va all'inferno (2017)

Riccardo va all'inferno (2017)
DVDRip | AVI / XviD@1415 kb/s | 720x300 | 1h 27mn | 1.14 GB | Italian: AC3, 448 kb/s (6 ch)
Genre: Musical

Riccardo Mancini (Massimo Ranieri) esce dall'ospedale psichiatrico giudiziario dove ha trascorso lunghi anni per un delitto avvolto nel mistero, ben deciso a vendicarsi e conquistare il potere all'interno della sua famiglia malavitosa. Riccardo non ha scrupoli nello sbarazzarsi dei suoi fratelli ma non ha fatto i conti con la vera anima nera della famiglia: la potente Regina Madre (Sonia Bergamasco).




General
Complete name : C:\Riccardo.va.all.inferno.2017.DVDRip.Xvid.AC3.ITA.CB01.avi
Format : AVI
Format/Info : Audio Video Interleave
Format profile : OpenDML
File size : 1.14 GiB
Duration : 1 h 27 min
Overall bit rate : 1 876 kb/s
Movie name : Riccardo.va.all.inferno.2017.DVDRip.Xvid.AC3.ITA.CB01
Writing application : Lavf56.9.100
Original source form/Name : RICCARDO_VA_ALL_INFERNO

Video
ID : 0
Format : MPEG-4 Visual
Format profile : Advanced Simple@L5
Format settings, BVOP : 2
Format settings, QPel : No
Format settings, GMC : No warppoints
Format settings, Matrix : Default (MPEG)
Muxing mode : Packed bitstream
Codec ID : XVID
Codec ID/Hint : XviD
Duration : 1 h 27 min
Bit rate : 1 415 kb/s
Width : 720 pixels
Height : 300 pixels
Display aspect ratio : 2.40:1
Frame rate : 25.000 FPS
Color space : YUV
Chroma subsampling : 4:2:0
Bit depth : 8 bits
Scan type : Progressive
Compression mode : Lossy
Bits/(Pixel*Frame) : 0.262
Stream size : 880 MiB (75%)
Writing library : XviD 64

Audio
ID : 1
Format : AC-3
Format/Info : Audio Coding 3
Format settings, Endianness : Big
Codec ID : 2000
Duration : 1 h 27 min
Bit rate mode : Constant
Bit rate : 448 kb/s
Channel(s) : 6 channels
Channel positions : Front: L C R, Side: L R, LFE
Sampling rate : 48.0 kHz
Frame rate : 31.250 FPS (1536 spf)
Bit depth : 16 bits
Compression mode : Lossy
Stream size : 279 MiB (24%)
Alignment : Aligned on interleaves
Interleave, duration : 32 ms (0.80 video frame)
Service kind : Complete Main




Screenshots

Riccardo va all'inferno (2017)

Riccardo va all'inferno (2017)

Riccardo va all'inferno (2017)