Tags
Language
Tags

Rick and Morty S03E10

Posted By: Tavaz
1080p (FullHD) / WEBRip IMDb
Rick and Morty S03E10

Rick and Morty S03E10
MKV | 1920x1080 | German | h264 @ 6430 kbps | AC3 5.1(side) @ 384 kb/s | 22:02 | 1.01 GB

Rick Sanchez ist ein älterer exzentrischer Wissenschaftler und Alkoholiker, der seit kurzem bei der Familie seiner Tochter Beth Smith wohnt. Die meiste Zeit verbringt er mit seinem Enkel Morty auf gefährlichen und ausgefallenen Abenteuern im gesamten Kosmos und in Parallelwelten.



Rick.and.Morty.S03E10.GERMAN.DUBBED.DL.1080p.WebHD.x264-ACED.mkv (1.0 GB)



General
Unique ID : 194963727416017197129320934342940340999 (0x92ACA5E7EA229EDE67269D9BBEB2B307)
Complete name : ./Rick.and.Morty.S03E10.GERMAN.DUBBED.DL.1080p.WebHD.x264-ACED.mkv
Format : Matroska
Format version : Version 4 / Version 2
File size : 1.01 GiB
Duration : 22 min 2 s
Overall bit rate mode : Variable
Overall bit rate : 6 582 kb/s
Encoded date : UTC 2017-11-14 10:26:56
Writing application : mkvmerge v17.0.0 ('Be Ur Friend') 64-bit
Writing library : libebml v1.3.5 + libmatroska v1.4.8

Video
ID : 1
Format : AVC
Format/Info : Advanced Video Codec
Format profile : Main@L4
Format settings : CABAC / 3 Ref Frames
Format settings, CABAC : Yes
Format settings, RefFrames : 3 frames
Codec ID : V_MPEG4/ISO/AVC
Duration : 22 min 2 s
Bit rate mode : Variable
Bit rate : 5 800 kb/s
Maximum bit rate : 8 700 kb/s
Width : 1 920 pixels
Height : 1 080 pixels
Display aspect ratio : 16:9
Frame rate mode : Constant
Frame rate : 25.000 FPS
Original frame rate : 23.976 (24000/1001) FPS
Color space : YUV
Chroma subsampling : 4:2:0
Bit depth : 8 bits
Scan type : Progressive
Bits/(Pixel*Frame) : 0.112
Stream size : 906 MiB (87%)
Writing library : x264 core 148
Encoding settings : cabac=1 / ref=3 / deblock=1:0:0 / analyse=0x1:0x111 / me=umh / subme=10 / psy=1 / psy_rd=1.00:0.00 / mixed_ref=1 / me_range=24 / chroma_me=1 / trellis=2 / 8x8dct=0 / cqm=0 / deadzone=21,11 / fast_pskip=1 / chroma_qp_offset=-2 / threads=8 / lookahead_threads=1 / sliced_threads=0 / nr=0 / decimate=1 / interlaced=0 / bluray_compat=0 / stitchable=1 / constrained_intra=0 / bframes=2 / b_pyramid=0 / b_adapt=2 / b_bias=0 / direct=3 / weightb=1 / open_gop=0 / weightp=2 / keyint=48 / keyint_min=25 / scenecut=0 / intra_refresh=0 / rc_lookahead=48 / rc=2pass / mbtree=1 / bitrate=5800 / ratetol=1.0 / qcomp=0.50 / qpmin=6 / qpmax=51 / qpstep=4 / cplxblur=20.0 / qblur=0.5 / vbv_maxrate=8700 / vbv_bufsize=11600 / nal_hrd=vbr / filler=0 / ip_ratio=1.40 / aq=1:1.00
Default : Yes
Forced : No

Audio #1
ID : 2
Format : AC-3
Format/Info : Audio Coding 3
Format settings, Endianness : Big
Codec ID : A_AC3
Duration : 22 min 2 s
Bit rate mode : Constant
Bit rate : 384 kb/s
Channel(s) : 6 channels
Channel positions : Front: L C R, Side: L R, LFE
Sampling rate : 48.0 kHz
Frame rate : 31.250 FPS (1536 SPF)
Bit depth : 16 bits
Compression mode : Lossy
Stream size : 60.5 MiB (6%)
Language : German
Service kind : Complete Main
Default : Yes
Forced : No

Audio #2
ID : 3
Format : AC-3
Format/Info : Audio Coding 3
Format settings, Endianness : Big
Codec ID : A_AC3
Duration : 22 min 2 s
Bit rate mode : Constant
Bit rate : 448 kb/s
Channel(s) : 6 channels
Channel positions : Front: L C R, Side: L R, LFE
Sampling rate : 48.0 kHz
Frame rate : 31.250 FPS (1536 SPF)
Bit depth : 16 bits
Compression mode : Lossy
Stream size : 70.6 MiB (7%)
Language : English
Service kind : Complete Main
Default : No
Forced : No





Rick and Morty S03E10


Rick and Morty S03E10


Rick and Morty S03E10


Rick and Morty S03E10


Rick and Morty S03E10

All episodes