Arte - Rio: The Great Saga (2016)

Posted By: notbanned
1080p (FullHD) / HDTV
Arte - Rio: The Great Saga (2016)

Arte - Rio: The Great Saga (2016)
HDTV | 1920x1080 | .MP4/AVC @ 4371 Kbps | 53 min 14 s | 1.69 GiB
Audio: English AAC 160 kbps, 2 channels | Subs: English
Genre: Documentary

Explore the history of Rio de Janeiro. This film will take viewers back in time to revisit the rich and contrasting history of Brazil's cultural hub, at the crossroad between colonial history, engineering challenges, and political and artistic revolutions.

General
Complete name : Rio.The.Great.Saga.1080p.mp4
Format : MPEG-4
Format profile : Base Media
Codec ID : isom (isom)
File size : 1.69 GiB
Duration : 53 min 14 s
Overall bit rate mode : Variable
Overall bit rate : 4 534 kb/s

Video
ID : 1
Format : AVC
Format/Info : Advanced Video Codec
Format profile : High@L4.1
Format settings, CABAC : No
Format settings, ReFrames : 1 frame
Format settings, GOP : M=1, N=12
Codec ID : avc1
Codec ID/Info : Advanced Video Coding
Duration : 53 min 14 s
Bit rate : 4 371 kb/s
Maximum bit rate : 37.3 Mb/s
Width : 1 920 pixels
Height : 1 080 pixels
Display aspect ratio : 16:9
Frame rate mode : Constant
Frame rate : 29.970 (30000/1001) FPS
Color space : YUV
Chroma subsampling : 4:2:0
Bit depth : 8 bits
Scan type : Progressive
Bits/(Pixel*Frame) : 0.070
Stream size : 1.63 GiB (96%)
Encoded date : UTC 2019-01-11 00:15:07
Tagged date : UTC 2019-01-11 10:54:07

Audio
ID : 2
Format : AAC
Format/Info : Advanced Audio Codec
Format profile : LC
Codec ID : 40
Duration : 53 min 14 s
Bit rate mode : Variable
Bit rate : 160 kb/s
Maximum bit rate : 229 kb/s
Channel(s) : 2 channels
Channel positions : Front: L R
Sampling rate : 48.0 kHz
Frame rate : 46.875 FPS (1024 spf)
Compression mode : Lossy
Stream size : 60.9 MiB (4%)
Language : English
Encoded date : UTC 2019-01-11 10:53:58
Tagged date : UTC 2019-01-11 10:54:07

Text
ID : 3
Format : Timed Text
Codec ID : tx3g
Duration : 52 min 23 s
Bit rate mode : Variable
Bit rate : 97 b/s
Stream size : 37.2 KiB (0%)
Forced : No
Encoded date : UTC 2019-01-11 10:54:07
Tagged date : UTC 2019-01-11 10:54:07


Screenshots:

Arte - Rio: The Great Saga (2016)

Arte - Rio: The Great Saga (2016)

Arte - Rio: The Great Saga (2016)

Arte - Rio: The Great Saga (2016)