Tags
Language
Tags

Rise of the Footsoldier 3 (2017)

Posted By: Without
1080p (FullHD) / BluRay Remux IMDb
Rise of the Footsoldier 3 (2017)

Rise of the Footsoldier 3 (2017)
BD-Remux | MKV | 1920x1080 | AVC@22.0 Mb/s | English DTS-HD MA@2048 kb/s
Subs: English | 6 channels | 1 h 39 min | 16.8 GB
Genre: Action, Comedy, Crime

Notorious gangster, Pat Tate, rises through the ranks of Essex's criminal underworld. A prequel to the 'Rise of the Footsoldier' franchise.



General
Rise.of.the.Footsoldier.3.2017.1080p.BluRay.REMUX.AVC.DTS-HD.MA.5.1-EPSiLON.mkv
Format : Matroska
Format version : Version 4 / Version 2
File size : 16.8 GiB
Duration : 1 h 39 min
Overall bit rate mode : Variable
Overall bit rate : 24.1 Mb/s
Movie name : Rise of the Footsoldier 3 (2017)
Encoded date : UTC 2018-01-22 11:56:04
Writing application : mkvmerge v20.0.0 ('I Am The Sun') 64-bit
Writing library : libebml v1.3.5 + libmatroska v1.4.8

Video
ID : 1
Format : AVC
Format/Info : Advanced Video Codec
Format profile : High@L4.1
Format settings, CABAC : Yes
Format settings, ReFrames : 3 frames
Format settings, GOP : M=3, N=12
Codec ID : V_MPEG4/ISO/AVC
Duration : 1 h 39 min
Bit rate mode : Variable
Bit rate : 22.0 Mb/s
Maximum bit rate : 35.0 Mb/s
Width : 1 920 pixels
Height : 1 080 pixels
Display aspect ratio : 16:9
Frame rate mode : Constant
Frame rate : 24.000 FPS
Standard : NTSC
Color space : YUV
Chroma subsampling : 4:2:0
Bit depth : 8 bits
Scan type : Progressive
Bits/(Pixel*Frame) : 0.442
Stream size : 15.3 GiB (91%)
Title : MPEG-4 AVC Video / 22000 kbps / 1080p / 24 fps / 16:9 / High Profile 4.1
Default : Yes
Forced : No
Color range : Limited
Color primaries : BT.709
Transfer characteristics : BT.709
Matrix coefficients : BT.709

Audio
ID : 2
Format : DTS
Format/Info : Digital Theater Systems
Format profile : MA / Core
Mode : 16
Format settings, Endianness : Big
Codec ID : A_DTS
Duration : 1 h 39 min
Bit rate mode : Variable / Constant
Bit rate : 2 048 kb/s / 1 509 kb/s
Channel(s) : 6 channels
Channel positions : Front: L C R, Side: L R, LFE
Sampling rate : 48.0 kHz
Frame rate : 93.750 FPS (512 spf)
Bit depth : 16 bits
Compression mode : Lossless / Lossy
Stream size : 1.45 GiB (9%)
Title : DTS-HD Master Audio / 5.1 / 48 kHz / 2085 kbps / 16-bit
Language : English
Default : Yes
Forced : No

Text
ID : 3
Format : PGS
Codec ID : S_HDMV/PGS
Codec ID/Info : Picture based subtitle format used on BDs/HD-DVDs
Duration : 1 h 34 min
Bit rate : 44.5 kb/s
Count of elements : 2846
Stream size : 30.1 MiB (0%)
Title : SDH
Language : English
Default : No
Forced : No

Menu
00:00:00.000 : en:Chapter 1
00:16:25.042 : en:Chapter 2
00:32:44.583 : en:Chapter 3
00:51:00.125 : en:Chapter 4
01:07:05.375 : en:Chapter 5
01:22:27.625 : en:Chapter 6


Screenshots

Rise of the Footsoldier 3 (2017)

Rise of the Footsoldier 3 (2017)

Rise of the Footsoldier 3 (2017)

Rise of the Footsoldier 3 (2017)

Rise of the Footsoldier 3 (2017)


Come Visit My Blog (•‿•)