Tags
Language
Tags

Rise of the Footsoldier 3 (2017)

Posted By: Without
Rise of the Footsoldier 3 (2017)

Rise of the Footsoldier 3 (2017)
HDRip | AVI | 720x384 | XviD@1606 kb/s | English AC3@384 kb/s | 6 channels | 1 h 39 min | 1.39 GB
WEB-DL 720p | MKV | 1280x690 | AVC@4001 kb/s | English AC3@384 kb/s
6 channels | 1 h 39 min | 3.11 GB
WEB-DL 1080p | MKV | 1918x1036 | AVC@5131 kb/s | English AC3@384 kb/s
Subs: English | 6 channels | 1 h 39 min | 3.91 GB
Genre: Action, Crime, Drama

Notorious gangster, Pat Tate, rises through the ranks of Essex's criminal underworld. A prequel to the 'Rise of the Footsoldier' franchise.



General
Rise of the Footsoldier 3.2017.HDRip.XviD.AC3-EVO\Rise of the Footsoldier 3.2017.HDRip.XviD.AC3-EVO.avi
Format : AVI
Format/Info : Audio Video Interleave
File size : 1.39 GiB
Duration : 1 h 39 min
Overall bit rate : 1 999 kb/s
Writing library : VirtualDub build 32593/release

Video
ID : 0
Format : MPEG-4 Visual
Format profile : Advanced Simple@L5
Format settings, BVOP : 2
Format settings, QPel : No
Format settings, GMC : No warppoints
Format settings, Matrix : Default (H.263)
Muxing mode : Packed bitstream
Codec ID : XVID
Codec ID/Hint : XviD
Duration : 1 h 39 min
Bit rate : 1 606 kb/s
Width : 720 pixels
Height : 384 pixels
Display aspect ratio : 1.85:1
Frame rate : 24.000 FPS
Color space : YUV
Chroma subsampling : 4:2:0
Bit depth : 8 bits
Scan type : Progressive
Compression mode : Lossy
Bits/(Pixel*Frame) : 0.242
Stream size : 1.12 GiB (80%)
Writing library : XviD 66

Audio
ID : 1
Format : AC-3
Format/Info : Audio Coding 3
Mode extension : CM (complete main)
Format settings, Endianness : Big
Codec ID : 2000
Duration : 1 h 39 min
Bit rate mode : Constant
Bit rate : 384 kb/s
Channel(s) : 6 channels
Channel positions : Front: L C R, Side: L R, LFE
Sampling rate : 48.0 kHz
Frame rate : 31.250 FPS (1536 spf)
Bit depth : 16 bits
Compression mode : Lossy
Stream size : 273 MiB (19%)
Alignment : Aligned on interleaves
Interleave, duration : 42 ms (1.00 video frame)
Interleave, preload duration : 512 ms

General
Rise of the Footsoldier 3.2017.720p.WEB-DL.H264.AC3-EVO\Rise of the Footsoldier 3.2017.720p.WEB-DL.H264.AC3-EVO.mkv
Format : Matroska
Format version : Version 4 / Version 2
File size : 3.11 GiB
Duration : 1 h 39 min
Overall bit rate : 4 474 kb/s
Movie name : EVO
Encoded date : UTC 2017-11-07 22:23:01
Writing application : mkvmerge v6.7.0 ('Back to the Ground') 64bit built on Jan 8 2014 15:10:52
Writing library : libebml v1.3.0 + libmatroska v1.4.1

Video
ID : 2
Format : AVC
Format/Info : Advanced Video Codec
Format profile : High@L3.1
Format settings, CABAC : No
Format settings, ReFrames : 2 frames
Codec ID : V_MPEG4/ISO/AVC
Duration : 1 h 39 min
Bit rate : 4 001 kb/s
Width : 1 280 pixels
Height : 690 pixels
Display aspect ratio : 1.85:1
Frame rate mode : Constant
Frame rate : 24.000 FPS
Color space : YUV
Chroma subsampling : 4:2:0
Bit depth : 8 bits
Scan type : Progressive
Bits/(Pixel*Frame) : 0.189
Stream size : 2.78 GiB (89%)
Language : English
Default : Yes
Forced : No
Color range : Limited
Color primaries : BT.709
Transfer characteristics : BT.709
Matrix coefficients : BT.709

Audio
ID : 1
Format : AC-3
Format/Info : Audio Coding 3
Mode extension : CM (complete main)
Format settings, Endianness : Big
Codec ID : A_AC3
Duration : 1 h 39 min
Bit rate mode : Constant
Bit rate : 384 kb/s
Channel(s) : 6 channels
Channel positions : Front: L C R, Side: L R, LFE
Sampling rate : 48.0 kHz
Frame rate : 31.250 FPS (1536 spf)
Bit depth : 16 bits
Compression mode : Lossy
Stream size : 273 MiB (9%)
Language : English
Default : Yes
Forced : No

Menu
00:00:00.000 : en:Chapter 1
00:18:07.333 : en:Chapter 2
00:37:44.666 : en:Chapter 3
00:56:52.582 : en:Chapter 4
01:15:24.998 : en:Chapter 5
01:34:40.330 : en:Chapter 6

General
Rise.of.the.Footsoldier.3.2017.1080p.WEB-DL.DD5.1.H264-FGT\Rise.of.the.Footsoldier.3.2017.1080p.WEB-DL.DD5.1.H264-FGT.mkv
Format : Matroska
Format version : Version 4 / Version 2
File size : 3.91 GiB
Duration : 1 h 39 min
Overall bit rate : 5 627 kb/s
Movie name : Rise.of.the.Footsoldier.3.2017.1080p.WEB-DL.DD5.1.H264-FGT
Encoded date : UTC 2017-11-10 12:09:57
Writing application : mkvmerge v17.0.0 ('Be Ur Friend') 64-bit
Writing library : libebml v1.3.5 + libmatroska v1.4.8
Cover : Yes
Attachments : small_cover.jpg / small_cover_land.jpg / cover.jpg / cover_land.jpg

Video
ID : 1
Format : AVC
Format/Info : Advanced Video Codec
Format profile : High@L4
Format settings, CABAC : Yes
Format settings, ReFrames : 4 frames
Codec ID : V_MPEG4/ISO/AVC
Duration : 1 h 39 min
Bit rate : 5 131 kb/s
Width : 1 918 pixels
Height : 1 036 pixels
Display aspect ratio : 1.85:1
Frame rate mode : Constant
Frame rate : 24.000 FPS
Color space : YUV
Chroma subsampling : 4:2:0
Bit depth : 8 bits
Scan type : Progressive
Bits/(Pixel*Frame) : 0.108
Stream size : 3.56 GiB (91%)
Title : Rise.of.the.Footsoldier.3.2017.1080p.WEB-DL.DD5.1.H264-FGT
Language : English
Default : Yes
Forced : No
Color range : Limited
Color primaries : BT.709
Transfer characteristics : BT.709
Matrix coefficients : BT.709

Audio
ID : 2
Format : AC-3
Format/Info : Audio Coding 3
Mode extension : CM (complete main)
Format settings, Endianness : Big
Codec ID : A_AC3
Duration : 1 h 39 min
Bit rate mode : Constant
Bit rate : 384 kb/s
Channel(s) : 6 channels
Channel positions : Front: L C R, Side: L R, LFE
Sampling rate : 48.0 kHz
Frame rate : 31.250 FPS (1536 spf)
Bit depth : 16 bits
Compression mode : Lossy
Delay relative to video : -42 ms
Stream size : 273 MiB (7%)
Title : Rise.of.the.Footsoldier.3.2017.1080p.WEB-DL.DD5.1.H264-FGT
Language : English
Default : Yes
Forced : No

Text
ID : 3
Format : UTF-8
Codec ID : S_TEXT/UTF8
Codec ID/Info : UTF-8 Plain Text
Language : English
Default : Yes
Forced : No

Menu
00:00:00.000 : en:Chapter 1
00:18:07.333 : en:Chapter 2
00:37:44.666 : en:Chapter 3
00:56:52.582 : en:Chapter 4
01:15:24.998 : en:Chapter 5
01:34:40.331 : en:Chapter 6


HDRip Screenshots

Rise of the Footsoldier 3 (2017)

Rise of the Footsoldier 3 (2017)

Rise of the Footsoldier 3 (2017)


WEB-DL 720p Screenshots

Rise of the Footsoldier 3 (2017)

Rise of the Footsoldier 3 (2017)

Rise of the Footsoldier 3 (2017)


WEB-DL 1080p Screenshots

Rise of the Footsoldier 3 (2017)

Rise of the Footsoldier 3 (2017)

Rise of the Footsoldier 3 (2017)


Come Visit My Blog (•‿•)