Rise of the Zombies (2012)

Posted By: NaVi7
Rise of the Zombies (2012)

Rise of the Zombies (2012)
BDRip | AVI / XVID, 1699 Kbps | 720x400 | 1h 34mn | 1.38 GB | English: AC3, 384 Kbps (6 ch)
BDRip | AVI / XVID, 908 Kbps | 624x352 | 1h 34mn | 701 MB | English: MP3, 175 Kbps (2 ch)
Genre: Action | Horror | Thriller

A group of survivors hide on Alcatraz Island to escape from rising zombie hordes. When their refuge is overrun, and upon hearing that a scientist may have discovered a cure, they leave the island to seek him out.

imdb

General
Complete name : Rise.of.the.Zombies.2012.HDRip.XVID.AC3.HQ.Hive-CM8.avi
Format : AVI
Format/Info : Audio Video Interleave
File size : 1.38 GiB
Duration : 1h 34mn
Overall bit rate : 2 092 Kbps
Writing application : Nandub v1.0rc2
Writing library : Nandub build 1853/release

Video
ID : 0
Format : MPEG-4 Visual
Format profile : Advanced Simple@L5
Format settings, BVOP : 2
Format settings, QPel : Yes
Format settings, GMC : No warppoints
Format settings, Matrix : Default (H.263)
Muxing mode : Packed bitstream
Codec ID : XVID
Codec ID/Hint : XviD
Duration : 1h 34mn
Bit rate : 1 699 Kbps
Width : 720 pixels
Height : 400 pixels
Display aspect ratio : 16:9
Frame rate : 23.976 fps
Color space : YUV
Chroma subsampling : 4:2:0
Bit depth : 8 bits
Scan type : Progressive
Compression mode : Lossy
Bits/(Pixel*Frame) : 0.246
Stream size : 1.12 GiB (81%)
Writing library : XviD 1.2.1 (UTC 2008-12-04)

Audio
ID : 1
Format : AC-3
Format/Info : Audio Coding 3
Mode extension : CM (complete main)
Format settings, Endianness : Big
Codec ID : 2000
Duration : 1h 34mn
Bit rate mode : Constant
Bit rate : 384 Kbps
Channel(s) : 6 channels
Channel positions : Front: L C R, Side: L R, LFE
Sampling rate : 48.0 KHz
Bit depth : 16 bits
Compression mode : Lossy
Stream size : 259 MiB (18%)
Alignment : Split accross interleaves
Interleave, duration : 42 ms (1.00 video frame)
Interleave, preload duration : 500 ms

General
Complete name : rise.of.the.zombies.2012.bdrip.xvid-wide.avi
Format : AVI
Format/Info : Audio Video Interleave
File size : 701 MiB
Duration : 1h 29mn
Overall bit rate mode : Variable
Overall bit rate : 1 096 Kbps

Video
ID : 0
Format : MPEG-4 Visual
Format profile : Advanced Simple@L5
Format settings, BVOP : 1
Format settings, QPel : No
Format settings, GMC : No warppoints
Format settings, Matrix : Default (MPEG)
Codec ID : XVID
Codec ID/Hint : XviD
Duration : 1h 29mn
Bit rate : 908 Kbps
Width : 624 pixels
Height : 352 pixels
Display aspect ratio : 16:9
Frame rate : 23.976 fps
Color space : YUV
Chroma subsampling : 4:2:0
Bit depth : 8 bits
Scan type : Progressive
Compression mode : Lossy
Bits/(Pixel*Frame) : 0.172
Stream size : 581 MiB (83%)
Writing library : XviD 1.2.1 (UTC 2008-12-04)

Audio
ID : 1
Format : MPEG Audio
Format version : Version 1
Format profile : Layer 3
Mode : Joint stereo
Mode extension : MS Stereo
Codec ID : 55
Codec ID/Hint : MP3
Duration : 1h 29mn
Bit rate mode : Variable
Bit rate : 175 Kbps
Nominal bit rate : 192 Kbps
Channel(s) : 2 channels
Sampling rate : 48.0 KHz
Compression mode : Lossy
Stream size : 112 MiB (16%)
Alignment : Aligned on interleaves
Interleave, duration : 24 ms (0.58 video frame)
Interleave, preload duration : 48 ms
Title : english
Writing library : LAME3.99r
Encoding settings : -m j -V 4 -q 2 -lowpass 18.6 –abr 192


screenshots - BDRip 1.38 GB:

Rise of the Zombies (2012)

Rise of the Zombies (2012)

Rise of the Zombies (2012)


screenshots - BDRip 701 MB:

Rise of the Zombies (2012)

Rise of the Zombies (2012)

Rise of the Zombies (2012)


Welcome to My Blog!

Subscribe to My Newsletter!

No more mirrors!

If you want to download it, but found out that links are dead, just leave a comment or PM me!
Download Links:
Uploaded | Rapidgator - BDRip 1.38 GB
Uploaded | Rapidgator - BDRip 701 MB
Links to RapidGator and Uploaded are inside the html file. Download the file and open it in your browser.