Rob Schneider: Soy Sauce and the Holocaust (2013)

Posted By: Tavaz
1080p (FullHD) / WEB-DL IMDb
Rob Schneider: Soy Sauce and the Holocaust (2013)

Rob Schneider: Soy Sauce and the Holocaust (2013)
WEB-DL | MKV | 1920x1080 | English | H264 @ 5800 kbps | E-AC-3 @ 128 kbps | 1 h 0 min | 2.43 GiB
Subtitles: English
Genre: Comedy

A true classic that will leave you wondering how this man isn't more of a household name, with an outrageous sense of humour that will leave you gasping for air in between laughs. I really can not recommend it more!!

Rob.Schneider.Soy.Sauce.and.the.Holocaust.2013.1080p.NF.WEB-DL.DD+2.0.x264-monkee.mkv (2.4 GB)



General
Unique ID : 244828702497593602216588073258853514235 (0xB8304AFE057A73D691F22D09F97EBBFB)
Complete name : ./Rob.Schneider.Soy.Sauce.and.the.Holocaust.2013.1080p.NF.WEB-DL.DD+2.0.x264-monkee.mkv
Format : Matroska
Format version : Version 4 / Version 2
File size : 2.43 GiB
Duration : 1 h 0 min
Overall bit rate mode : Variable
Overall bit rate : 5 772 kb/s
Encoded date : UTC 2017-07-25 17:17:30
Writing application : mkvmerge v13.0.0 ('The Juggler') 64bit
Writing library : libebml v1.3.4 + libmatroska v1.4.5

Video
ID : 1
Format : AVC
Format/Info : Advanced Video Codec
Format profile : Main@L4
Format settings : CABAC / 3 Ref Frames
Format settings, CABAC : Yes
Format settings, RefFrames : 3 frames
Codec ID : V_MPEG4/ISO/AVC
Duration : 1 h 0 min
Bit rate mode : Variable
Bit rate : 5 800 kb/s
Maximum bit rate : 8 700 kb/s
Width : 1 920 pixels
Height : 1 080 pixels
Display aspect ratio : 16:9
Frame rate mode : Constant
Frame rate : 23.976 (24000/1001) FPS
Color space : YUV
Chroma subsampling : 4:2:0
Bit depth : 8 bits
Scan type : Progressive
Bits/(Pixel*Frame) : 0.117
Stream size : 2.37 GiB (98%)
Writing library : x264 core 118
Encoding settings : cabac=1 / ref=3 / deblock=1:0:0 / analyse=0x1:0x111 / me=umh / subme=10 / psy=1 / psy_rd=1.00:0.00 / mixed_ref=1 / me_range=24 / chroma_me=1 / trellis=2 / 8x8dct=0 / cqm=0 / deadzone=21,11 / fast_pskip=1 / chroma_qp_offset=-2 / threads=8 / sliced_threads=0 / nr=0 / decimate=1 / interlaced=0 / bluray_compat=0 / constrained_intra=0 / bframes=2 / b_pyramid=0 / b_adapt=2 / b_bias=0 / direct=3 / weightb=1 / open_gop=0 / weightp=2 / keyint=48 / keyint_min=25 / scenecut=0 / intra_refresh=0 / rc_lookahead=0 / rc=2pass / mbtree=1 / bitrate=5800 / ratetol=1.0 / qcomp=0.50 / qpmin=6 / qpmax=51 / qpstep=4 / cplxblur=20.0 / qblur=0.5 / vbv_maxrate=8700 / vbv_bufsize=11600 / nal_hrd=vbr / ip_ratio=1.40 / aq=1:1.00
Default : Yes
Forced : No

Audio
ID : 2
Format : E-AC-3
Format/Info : Enhanced Audio Coding 3
Format settings, Endianness : Big
Codec ID : A_EAC3
Duration : 1 h 0 min
Bit rate mode : Constant
Bit rate : 128 kb/s
Channel(s) : 2 channels
Channel positions : Front: L R
Sampling rate : 48.0 kHz
Frame rate : 187.500 FPS (256 SPF)
Compression mode : Lossy
Stream size : 55.1 MiB (2%)
Language : English
Service kind : Complete Main
Default : Yes
Forced : No

Text
ID : 3
Format : UTF-8
Codec ID : S_TEXT/UTF8
Codec ID/Info : UTF-8 Plain Text
Duration : 57 min 42 s
Bit rate : 107 b/s
Count of elements : 2266
Stream size : 45.4 KiB (0%)
Language : English
Default : No
Forced : No





Rob Schneider: Soy Sauce and the Holocaust (2013)


Rob Schneider: Soy Sauce and the Holocaust (2013)


Rob Schneider: Soy Sauce and the Holocaust (2013)


Rob Schneider: Soy Sauce and the Holocaust (2013)


Rob Schneider: Soy Sauce and the Holocaust (2013)