Tags
Language
Tags

Rock Rubber 45s (2018)

Posted By: notbanned
720p (HD) / WEBRip IMDb
Rock Rubber 45s (2018)

Rock Rubber 45s (2018)
WEBRip | 1280x720 | .MKV/AVC @ 3841 Kbps | 1 h 36 min | 2.69 GiB
Audio: English AAC 137 kbps, 2 channels | Subs: English
Genre: Documentary

ROCK RUBBER 45s is a cinematic odyssey exploring the connectivity of global basketball, sneaker, and music lifestyle through the firsthand lens of authentic NYC culture orchestrator Bobbito García. The film explores García's youth dealing with mistreatment, educational quandaries, identity, and loss as well as his ascension to self-determination as an adult freelance creative. The ballplayer/author/DJ/filmmaker has carved an independent career that has inspired millions throughout the world, and has affected the growth and direction of the footwear, hip hop, and sports industries in the process.

General
Unique ID : 45488404719354742911697929434442648091 (0x2238BF81FBC7E42486DEE2289CDA4A1B)
Complete name : Rock.Rubber.45s.2018.720p.mkv
Format : Matroska
Format version : Version 4 / Version 2
File size : 2.69 GiB
Duration : 1 h 36 min
Overall bit rate : 3 980 kb/s

Video
ID : 1
Format : AVC
Format/Info : Advanced Video Codec
Format profile : High@L4.1
Format settings, CABAC : Yes
Format settings, ReFrames : 5 frames
Codec ID : V_MPEG4/ISO/AVC
Duration : 1 h 36 min
Bit rate : 3 841 kb/s
Width : 1 280 pixels
Height : 720 pixels
Display aspect ratio : 16:9
Frame rate mode : Constant
Frame rate : 23.976 (23976/1000) FPS
Original frame rate : 23.976 (24000/1001) FPS
Color space : YUV
Chroma subsampling : 4:2:0
Bit depth : 8 bits
Scan type : Progressive
Bits/(Pixel*Frame) : 0.174
Stream size : 2.60 GiB (96%)
Writing library : x264 core 157 r2969 d4099dd
Encoding settings : cabac=1 / ref=5 / deblock=1:0:0 / analyse=0x3:0x113 / me=hex / subme=8 / psy=1 / psy_rd=1.00:0.00 / mixed_ref=1 / me_range=16 / chroma_me=1 / trellis=2 / 8x8dct=1 / cqm=0 / deadzone=21,11 / fast_pskip=1 / chroma_qp_offset=-2 / threads=6 / lookahead_threads=1 / sliced_threads=0 / nr=0 / decimate=1 / interlaced=0 / bluray_compat=0 / constrained_intra=0 / bframes=3 / b_pyramid=2 / b_adapt=1 / b_bias=0 / direct=3 / weightb=1 / open_gop=0 / weightp=2 / keyint=240 / keyint_min=24 / scenecut=40 / intra_refresh=0 / rc_lookahead=50 / rc=crf / mbtree=1 / crf=18.0 / qcomp=0.60 / qpmin=0 / qpmax=69 / qpstep=4 / ip_ratio=1.40 / aq=1:0.70
Default : Yes
Forced : No
Color range : Limited
Matrix coefficients : BT.709

Audio
ID : 2
Format : AAC
Format/Info : Advanced Audio Codec
Format profile : LC
Codec ID : A_AAC
Duration : 1 h 36 min
Bit rate : 137 kb/s
Channel(s) : 2 channels
Channel positions : Front: L R
Sampling rate : 48.0 kHz
Frame rate : 46.875 FPS (1024 spf)
Compression mode : Lossy
Stream size : 94.8 MiB (3%)
Language : English
Default : Yes
Forced : No


Screenshots:

Rock Rubber 45s (2018)

Rock Rubber 45s (2018)

Rock Rubber 45s (2018)

Rock Rubber 45s (2018)